Upload | Wsparcie | Staty | Staty 2 | FAQ | O nas | Forum | Pluginy | Banery | Szukaj | Moje konto
Ostatnio dodane
Filmy XviD / DivX
DVD-R
Filmy RMVB
Filmy x264
Filmy HD
Filmy 3D
Programy
Konsole
Gry
Muzyka
Teledyski
TV
Erotyka
Książki
Komiksy
Lin/Mac
Sport
Anime
dla Dzieci
GSM/PDA
Inne
info RSS

RSS

Programy

Azureus
BitComet
uTorrent
BitTornado

Linki

Love Story (1970) [BRRip.x264.DualAudio.AC3.DTS] [Lektor i Napisy PL]
brak screena

Dodał: ale13
Data dodania:
2014-03-14 06:16:37
Rozmiar: 4.03 GB


Komentarze: 2

Pobierz torrent

Magnet Link
[url]http://www.filmweb.pl/film/Love+Story-1970-1297[/url]

[url]http://www.imdb.com/title/tt0066011/[/url]

gatunek: Melodramat
produkcja: USA
premiera: 16-12-1970
reżyseria: Arthur Hiller
scenariusz: Erich Segal
muzyka: Francis Lai
zdjęcia: Richard C. Kratina
czas: 01:40:21

Harvard Law student Oliver Barrett IV and music student Jennifer Cavilleri share a chemistry
they cannot deny - and a love they cannot ignore. Despite their opposite backgrounds, the young ...

Najsłynniejszy melodramat od czasów "Przeminęło z wiatrem" i "Casablanci". Historia wielkiej
miłości. On (Ryan O'Neal), student prawa, wywodzi się z zamożnej rodziny. Ona (Ali MacGraw)
to studentka muzyki i córka piekarza (John Marley). Kiedy Olivier przedstawia Jenny swoim
rodzicom, ci sprzeciwiają się ich związkowi. Wtedy bohater zrywa z domem i rozpoczyna z Jenny
samodzielne życie. Pomimo trudnych warunków finansowych bohaterowie są szczęśliwi. Wkrótce
pojawiają się problemy...

[img]http://www.iv.pl/images/81768353736593879939.jpg[/img]

[img]http://www.iv.pl/images/99487137091779964862.jpg[/img]

Obsada:

Ali MacGraw, Ryan O'Neal, John Marley

Dane techniczne:

Format : Matroska
Format version : Version 4 / Version 2
File size : 4.03 GiB
Duration : 1h 40mn
Overall bit rate : 5 744 Kbps
Movie name : Love Story (1970)_Rip.-alE13
Encoded date : UTC 2014-03-14 04:32:53
Writing application : mkvmerge v6.7.0
Writing library : libebml v1.3.0 + libmatroska v1.4.1

Video
ID : 1
Format : AVC
Format/Info : Advanced Video Codec
Format profile : High@L4.0
Format settings, CABAC : Yes
Format settings, ReFrames : 2 frames
Codec ID : V_MPEG4/ISO/AVC
Duration : 1h 40mn
Bit rate : 3 500 Kbps
Width : 1 920 pixels
Height : 1 080 pixels
Display aspect ratio : 16:9
Frame rate mode : Constant
Frame rate : 23.976 fps
Color space : YUV
Chroma subsampling : 4:2:0
Bit depth : 8 bits
Scan type : Progressive
Bits/(Pixel*Frame) : 0.070
Stream size : 2.37 GiB (59%)
Title : Love story (1970)-Rip.-alE13
Writing library : x264 core 129

Audio #1
ID : 2
Format : AC-3
Format/Info : Audio Coding 3
Mode extension : CM (complete main)
Format settings, Endianness : Big
Codec ID : A_AC3
Duration : 1h 40mn
Bit rate mode : Constant
Bit rate : 512 Kbps
Channel(s) : 2 channels
Channel positions : Front: L R
Sampling rate : 48.0 KHz
Bit depth : 16 bits
Compression mode : Lossy
Delay relative to video : 850ms
Stream size : 367 MiB (9%)
Title : Love story (1970)-alE13_AC3 @ 512 Kbps
Language : Polish

Audio #2
ID : 4
Format : DTS
Format/Info : Digital Theater Systems
Codec ID : A_DTS
Duration : 1h 40mn
Bit rate mode : Constant
Bit rate : 1 510 Kbps
Channel(s) : 6 channels
Channel positions : Front: L C R, Side: L R, LFE
Sampling rate : 48.0 KHz
Bit depth : 24 bits
Compression mode : Lossy
Stream size : 1.06 GiB (26%)
Title : Love story (1970)-alE13_DTS @ 1510 Kbps_6 chanels
Language : English

Audio #3
ID : 5
Format : AC-3
Format/Info : Audio Coding 3
Mode extension : CM (complete main)
Format settings, Endianness : Big
Codec ID : A_AC3
Duration : 1h 40mn
Bit rate mode : Constant
Bit rate : 224 Kbps
Channel(s) : 2 channels
Channel positions : Front: L R
Sampling rate : 48.0 KHz
Bit depth : 16 bits
Compression mode : Lossy
Stream size : 161 MiB (4%)
Title : Commentary by Director Arthur Hiller
Language : English

Text #1
ID : 3
Format : UTF-8
Codec ID : S_TEXT/UTF8
Codec ID/Info : UTF-8 Plain Text
Title : Love story (1970)-alE13
Language : Polish

Text #2
ID : 6
Format : UTF-8
Codec ID : S_TEXT/UTF8
Codec ID/Info : UTF-8 Plain Text
Title : Love story (1970)-alE13
Language : Russian

Text #3
ID : 7
Format : UTF-8
Codec ID : S_TEXT/UTF8
Codec ID/Info : UTF-8 Plain Text
Title : Love story (1970)-alE13
Language : English

Text #4
ID : 8
Format : UTF-8
Codec ID : S_TEXT/UTF8
Codec ID/Info : UTF-8 Plain Text
Title : Love story (1970)-alE13
Language : English

Text #5
ID : 9
Format : UTF-8
Codec ID : S_TEXT/UTF8
Codec ID/Info : UTF-8 Plain Text
Title : Love story (1970)-alE13
Language : Spanish

Text #6
ID : 10
Format : UTF-8
Codec ID : S_TEXT/UTF8
Codec ID/Info : UTF-8 Plain Text
Title : Love story (1970)-alE13
Language : French

Text #7
ID : 11
Format : UTF-8
Codec ID : S_TEXT/UTF8
Codec ID/Info : UTF-8 Plain Text
Title : Love story (1970)-alE13
Language : Portuguese

Menu
00:00:00.000 : en:00:00:00.000
00:00:03.537 : en:00:00:03.537
00:05:00.066 : en:00:05:00.066
00:09:52.392 : en:00:09:52.392
00:14:14.987 : en:00:14:14.987
00:18:17.330 : en:00:18:17.330
00:21:42.334 : en:00:21:42.334
00:27:07.726 : en:00:27:07.726
00:32:44.596 : en:00:32:44.596
00:37:26.144 : en:00:37:26.144
00:42:59.341 : en:00:42:59.310
00:48:40.148 : en:00:48:40.117
00:53:40.748 : en:00:53:40.717
00:58:32.940 : en:00:58:32.909
01:04:00.487 : en:01:04:00.403
01:08:29.923 : en:01:08:29.839
01:18:33.693 : en:01:18:33.609
01:21:48.585 : en:01:21:47.936
01:26:12.115 : en:01:26:11.466
01:29:37.320 : en:01:29:36.671
01:37:27.490 : en:01:37:26.841

[img]http://www.iv.pl/images/56814759176640479517.jpg[/img]
[img]http://www.iv.pl/images/19574167223094781858.jpg[/img]
[img]http://www.iv.pl/images/69861863927834876407.jpg[/img]
[img]http://www.iv.pl/images/61409338314134467140.jpg[/img]

Zgłoś do moderacji pliki
Tracker


Love story (1970)-alE13.mkv 4.03 GB
info 1.06 MB
info 186.57 KB
info 184.73 KB
txt.jpg 182.59 KB
poster.jpg 143.31 KB
subtitles 72.09 KB
napisy.jpg 54.50 KB
info 0.12 KB
info 0.10 KB

Komentarze

avatar
Dodał: sophieeh
Data: 2014-03-16 18:13:42
głupi film.
avatar
Dodał: ale13
Data: 2014-03-16 18:15:46
Fakt, podobnie jak ty.:D
Max ()

Dodaj komentarz

<> tylko czysty tekst

Żaden z plików nie znajduje się na serwerze. Torrenty są własnością użytkowników. Administrator serwisu nie może ponieść konsekwencji za to co użytkownicy wstawiają, lub za to co czynią na stronie. Nie możesz używać tego serwisu do rozpowszechniania lub ściągania materiałów do których nie masz odpowiednich praw lub licencji. Użytkownicy odpowiedzialni są za przestrzeganie tych zasad.