Upload | Wsparcie | Staty | Staty 2 | FAQ | O nas | Forum | Pluginy | Banery | Szukaj | Moje konto
Ostatnio dodane
Filmy XviD / DivX
DVD-R
Filmy RMVB
Filmy x264
Filmy HD
Filmy 3D
Programy
Konsole
Gry
Muzyka
Teledyski
TV
Erotyka
Książki
Komiksy
Lin/Mac
Sport
Anime
dla Dzieci
GSM/PDA
Inne
info RSS

RSS

Programy

Azureus
BitComet
uTorrent
BitTornado

Linki

Gwiezdne wojny Część III: Zemsta Sithów - Star Wars Episode 3 Revenge of the Sith *2005* (60 FPS) [1080p.BDRip.AC3/DTS-HDMA 6.1.BluRay.x264.mkv] [Napisy i Lektor PL] [SZCZYKU]
brak screena

Dodał: pizdablada
Data dodania:
2014-03-13 09:51:05
Rozmiar: 19.45 GB


Komentarze: 13

Pobierz torrent

Magnet Link
produkcja: USA
gatunek: Przygodowy, Sci-Fi
data premiery: 2005-05-19 (Polska), 2005-05-15 (Świat)
reżyseria George Lucas
scenariusz George Lucas
zdjęcia David Tattersall
muzyka John Williams
od lat: 12
czas trwania: 140

Ostatnia część Gwiezdnej Sagi George'a Lucasa będzie opowiadać o przejściu Anakina Skywalkera na Ciemną Stronę Mocy. Anakin zaczyna się wahać po czyjej stronie będzie walczyć. Obawa przed utratą Padme zbliża go coraz bardziej na Ciemną Stronę. Również pod wpływem kanclerza Palpatine Anakin zaczyna się oddalać od JEDI. Doprowadza go to do pojedynku ze swoim mistrzem Obi Wanem. Straszliwie poparzony Anakin zostaje uratowany przez Imperatora i zmienia się w Dartha Vadera.

Obsada:

Ewan McGregor :Obi-wan Kenobi
Hayden Christensen :Anakin Skywalker
Natalie Portman :Padme Amidala
Ian McDiarmid :Kanclerz Palpatine
Samuel L. Jackson :Mace Windu
Christopher Lee :Darth Tyranus aka Count Dooku
Jimmy Smits :Senator Bail Organa
Frank Oz :Yoda (głos)
James Earl Jones :Darth Vader (głos)
Anthony Daniels :C-3PO
Jay Laga'aia :Captain Typho
Keisha Castle-Hughes :Królowa Naboo
Matthew Wood :Generał Grevious (głos)
Kenny Baker :R2-D2
Rebecca Jackson Mendoza :Żona Baila Organy


info

Video

Format : AVC
Format/Info : Advanced Video Codec
Format profile : High@L4.1
Format settings, CABAC : Yes
Format settings, ReFrames : 5 frames
Codec ID : V_MPEG4/ISO/AVC
Duration : 2h 20mn
Bit rate : 16.7 Mbps
Nominal bit rate : 14.2 Mbps
Width : 1 920 pixels
Height : 816 pixels
Display aspect ratio : 2.35:1
Frame rate : 59.940 fps
Color space : YUV
Chroma subsampling : 4:2:0
Bit depth : 8 bits
Scan type : Progressive
Bits/(Pixel*Frame) : 0.178
Stream size : 16.3 GiB

Audio 1

Format : AC-3
Format/Info : Audio Coding 3
Mode extension : CM (complete main)
Format settings, Endianness : Big
Codec ID : A_AC3
Duration : 2h 20mn
Bit rate mode : Constant
Bit rate : 640 Kbps
Channel(s) : 6 channels
Channel positions : Front: L C R, Side: L R, LFE
Sampling rate : 48.0 KHz
Bit depth : 16 bits
Compression mode : Lossy
Stream size : 641 MiB (3%)
Title : Eng
Language : English

Audio 2

Format : AC-3
Format/Info : Audio Coding 3
Mode extension : CM (complete main)
Format settings, Endianness : Big
Codec ID : A_AC3
Duration : 2h 20mn
Bit rate mode : Constant
Bit rate : 640 Kbps
Channel(s) : 6 channels
Channel positions : Front: L C R, Side: L R, LFE
Sampling rate : 48.0 KHz
Bit depth : 16 bits
Compression mode : Lossy
Stream size : 641 MiB (3%)
Default : Yes
Forced : No

Audio 3

Format : DTS
Format/Info : Digital Theater Systems
Format profile : MA / Core
Codec ID : A_DTS
Duration : 2h 20mn
Bit rate mode : Variable
Bit rate : 1 510 Kbps
Channel(s) : 7 channels / 6 channels
Channel positions : Front: L C R, Side: L R, Back: C, LFE / Front: L C R, Side: L R, LFE
Sampling rate : 48.0 KHz
Bit depth : 24 bits
Compression mode : Lossless / Lossy
Stream size : 1.48 GiB (8%)

Text 1

Napisy Polskie i Angielskie

Zgłoś do moderacji pliki
Tracker


Gwiezdne Wojny 3.mkv 19.45 GB

Komentarze

avatar
Dodał: Kkasp
Data: 2014-03-13 12:57:05
wstaw II w tej jakości
avatar
Dodał: karez
Data: 2014-03-13 14:46:13
W Polsce wydana seria ma dźwięk niestety tylko DTS 6.1 discrete. To samo w Anglii i Niemczech. Dopiero amerykańska wersja jest w DTS HD MASTER 6.1.
avatar
Dodał: Kejmoski
Data: 2014-03-13 14:51:57
W Anglii jest Angielskie DTS-HD MA.
avatar
Dodał: martynkapl
Data: 2014-03-13 19:19:41
jest szansa na część II ?
avatar
Dodał: Mlody85
Data: 2014-03-13 19:37:37
leon 345 wstawiał jakiś czas temu niezłe wstawki sw, z 3 opcjami jezykowymi i napisami, polecam, bo dlaej aktywne po 16-17gb
avatar
Dodał: mikibig
Data: 2014-03-13 19:51:52
@Mlody85 - taaa... Leon wstawił...
avatar
Dodał: marek 24
Data: 2014-03-13 21:46:07
dzięki za wstawkę ;)
avatar
Dodał: banszuc
Data: 2014-03-13 22:21:37
nick gościa co wystawia... ręce opadają
avatar
Dodał: pizdablada
Data: 2014-03-14 07:37:39
pizdablada
avatar
Dodał: WIESŁAWEK
Data: 2014-03-14 09:07:05
"nieopalone narządy kobiece"...taką miałem podpowiedz do hasła,którego zapomniałem :) Uśmiałem się kiedy to zobaczyłem bo przypomniało mi się jak próbowałem się logować na pewną ruską stronę i za 15 nieudanym razem wpisałem jak kolega "P" Piz...blada i weszło!Hasło oczywiście zapomniałem ale od czego są podpowiedzi ;)
avatar
Dodał: podpal
Data: 2014-03-14 15:53:31
mi się podoba od razu wpada w ucho
avatar
Dodał: slawek1965
Data: 2014-03-14 22:16:22
92 procent i stoi
avatar
Dodał: Ciemny Ryl
Data: 2014-03-15 03:49:53
jak coś nie idzie to pizdablada
Max ()

Dodaj komentarz

<> tylko czysty tekst

Żaden z plików nie znajduje się na serwerze. Torrenty są własnością użytkowników. Administrator serwisu nie może ponieść konsekwencji za to co użytkownicy wstawiają, lub za to co czynią na stronie. Nie możesz używać tego serwisu do rozpowszechniania lub ściągania materiałów do których nie masz odpowiednich praw lub licencji. Użytkownicy odpowiedzialni są za przestrzeganie tych zasad.