Upload | Wsparcie | Staty | Staty 2 | FAQ | O nas | Forum | Pluginy | Banery | Szukaj | Moje konto
Ostatnio dodane
Filmy XviD / DivX
DVD-R
Filmy RMVB
Filmy x264
Filmy HD
Filmy 3D
Programy
Konsole
Gry
Muzyka
Teledyski
TV
Erotyka
Książki
Komiksy
Lin/Mac
Sport
Anime
dla Dzieci
GSM/PDA
Inne
info RSS

RSS

Programy

Azureus
BitComet
uTorrent
BitTornado

Linki

Mega mix 2013 ESKA TV [mp3@256] [P4rk3r]
brak screena

Dodał: blackjack
Data dodania:
2014-01-18 16:33:03
Rozmiar: 2.30 GB


Komentarze: 3

Pobierz torrent

Magnet Link
Jest to Mega Music Mix z Sylwestra 2013 on Eska TV

Info:

Format : Matroska
Format version : Version 4 / Version 2
File size : 2.12 GiB
Duration : 1h 39mn
Overall bit rate : 3 065 Kbps
Encoded date : UTC 2014-01-16 13:51:39

Video:

ID : 1
Format : AVC
Format/Info : Advanced Video Codec
Format profile : High@L3.0
Duration : 1h 39mn
Bit rate : 2 748 Kbps
Width : 720 pixels
Height : 576 pixels
Display aspect ratio : 16:9
Frame rate : 25.000 fps
Standard : PAL
Color space : YUV
Chroma subsampling : 4:2:0
Bit depth : 8 bits
Scan type : Progressive
Bits/(Pixel*Frame) : 0.265
Stream size : 1.90 GiB (90%)


Audio:

ID : 2
Format : MPEG Audio
Format version : Version 1
Format profile : Layer 3
Mode : Joint stereo
Codec ID : A_MPEG/L3
Codec ID/Hint : MP3
Duration : 1h 39mn
Bit rate mode : Constant
Bit rate : 256 Kbps
Channel count : 2 channels
Sampling rate : 48.0 KHz
Compression mode : Lossy
Stream size : 181 MiB (8%)
Default : Yes
Forced : No

Zgłoś do moderacji pliki
Tracker


Mega Music Mix on ESKA TV (31.12.2013) (High.Quality) [by.Pit3r.P4rk3r].mkv 2.12 GB
Mega Music Mix on ESKA TV (31.12.2013) (High.Quality) [by.Pit3r.P4rk3r].mp3 181.37 MB
Mega Music Mix on ESKA TV (31.12.2013) (High.Quality) [by.Pit3r.P4rk3r].jpg 138.66 KB
Mega Music Mix on ESKA TV (31.12.2013) (High.Quality) [by.Pit3r.P4rk3r] MediaInfo.txt 5.04 KB

Komentarze

avatar
Dodał: alural
Data: 2014-01-18 19:47:32
co to jest?
na pewno nie teledyski kto wystawił to na tej stronie?
avatar
Dodał: caster18
Data: 2014-01-19 15:26:34
A w esce tv nie leca teledyski ? ? ? hahaha

Dobry jestes
avatar
Dodał: kasia1973
Data: 2014-01-19 18:02:30
W esce tv lecą teledyski ale mix to nie teledysk. Lubię mixy bo w godzinę można przejrzeć ponad sto teledysków, czym krótsze fragmenty tym lepiej. Jak wybiorę ciekawe teledyski do ściągnięcie to natychmiast kasuje mixa. Dzięki za wstawkę.
Max ()

Dodaj komentarz

<> tylko czysty tekst

Żaden z plików nie znajduje się na serwerze. Torrenty są własnością użytkowników. Administrator serwisu nie może ponieść konsekwencji za to co użytkownicy wstawiają, lub za to co czynią na stronie. Nie możesz używać tego serwisu do rozpowszechniania lub ściągania materiałów do których nie masz odpowiednich praw lub licencji. Użytkownicy odpowiedzialni są za przestrzeganie tych zasad.