Upload | Wsparcie | Staty | Staty 2 | FAQ | O nas | Forum | Pluginy | Banery | Szukaj | Moje konto
Ostatnio dodane
Filmy XviD / DivX
DVD-R
Filmy RMVB
Filmy x264
Filmy HD
Filmy 3D
Programy
Konsole
Gry
Muzyka
Teledyski
TV
Erotyka
Książki
Komiksy
Linux
Sport
Anime
dla Dzieci
GSM/PDA
Inne
info RSS

RSS

Programy

Azureus
BitComet
uTorrent
BitTornado

Linki

Filmy HD/ Sci-fi
Gwiezdne wojny: Część I - Mroczne widmo-Star Wars: Episode I - The Phantom Menace *1999* (60 FPS) [1080p.DTS/AC3.BluRay.x264] [Napisy i Lektor PL] [SZCZYKU]
brak screena

Dodał: pizdablada
Data dodania:
2014-01-15 10:11:04
Rozmiar: 16.04 GB


Komentarze: 20

Pobierz torrent

Magnet Link
Polski tytuł: Gwiezdne Wojny: Część I - Mroczne Widmo
Oryginalny tytuł: Star Wars: Episode 1 - The Phantom Menace
Produkcja: USA
Gatunek: Sci-Fi, Przygodowy
Data premiery: 1999-09-17 (Polska), 1999-05-19 (Świat)
Reżyseria: George Lucas
Scenariusz: George Lucas
Zdjęcia: David Tattersall
Muzyka: John Williams
Czas trwania: 136 min.

OPIS:
=========================

Pierwsza część sagi. Obi-Wan przyjmuje nauki od swego mistrza Qui-Gon Jinna. Jedi zostają wysłani z misją na Naboo aby wynegocjować pokój między Naboo a Federacją Handlową. Niestety Darth Sidious pokierował działaniami Federacji i dokonał inwazji na tą małą plnetę. Rycerze z królową Naboo lądują na Tatooine na której to mieszka chłopiec imieniem Anakin.

OBSADA:
=========================

Liam Neeson: Qui-Gon Jinn
Ewan McGregor: Obi-Wan Kenobi
Natalie Portman: Królowa Amidala/Padmé Naberrie
Jake Lloyd: Anakin Skywalker
Ian McDiarmid: Senator Palpatine
Samuel L. Jackson: Mace Windu
Oliver Ford Davies: Sio Bibble
Terence Stamp: Chancellor Valorum
Pernilla August: Shmi Skywalker
Frank Oz: Yoda
Ahmed Best: Jar Jar Binks
Hugh Quarshie: Captain Panaka
Kenny Baker: R2D2 (Artoo-Detoo)
Warwick Davis: Wald,Grimy Man,Spectator
Dominic West: Strażnik w Pałace

Video

Format : AVC
Format/Info : Advanced Video Codec
Format profile : High@L4.1
Format settings, CABAC : Yes
Format settings, ReFrames : 5 frames
Codec ID : V_MPEG4/ISO/AVC
Duration : 2h 16mn
Bit rate : 14.1 Mbps
Width : 1 920 pixels
Height : 816 pixels
Display aspect ratio : 2.35:1
Frame rate : 59.940 fps
Color space : YUV
Chroma subsampling : 4:2:0
Bit depth : 8 bits
Scan type : Progressive
Bits/(Pixel*Frame) : 0.150
Stream size : 13.1 GiB (81%)

Audio 1

Format : DTS
Format/Info : Digital Theater Systems
Format profile : ES
Codec ID : A_DTS
Duration : 2h 16mn
Bit rate mode : Constant
Bit rate : 1 510 Kbps
Channel(s) : 7 channels / 6 channels
Channel positions : Front: L C R, Side: L R, Back: C, LFE / Front: L C R, Side: L R, LFE
Sampling rate : 48.0 KHz
Bit depth : 24 bits
Compression mode : Lossy
Stream size : 1.44 GiB (9%)
Title : English DTS-ES 6.1 @ 1509 Kbps
Language : English

Audio 2

Format : AC-3
Format/Info : Audio Coding 3
Mode extension : CM (complete main)
Format settings, Endianness : Big
Codec ID : A_AC3
Duration : 2h 16mn
Bit rate mode : Constant
Bit rate : 640 Kbps
Channel(s) : 6 channels
Channel positions : Front: L C R, Side: L R, LFE
Sampling rate : 48.0 KHz
Bit depth : 16 bits
Compression mode : Lossy
Stream size : 623 MiB (4%)
Title : Eng
Language : English

Audio 3

Format : AC-3
Format/Info : Audio Coding 3
Mode extension : CM (complete main)
Format settings, Endianness : Big
Codec ID : A_AC3
Duration : 2h 16mn
Bit rate mode : Constant
Bit rate : 640 Kbps
Channel(s) : 6 channels
Channel positions : Front: L C R, Side: L R, LFE
Sampling rate : 48.0 KHz
Bit depth : 16 bits
Compression mode : Lossy
Stream size : 623 MiB (4%)

Text 1

Format : UTF-8
Codec ID : S_TEXT/UTF8
Codec ID/Info : UTF-8 Plain Text
Title : English Full
Language : English

Text 2

ID : 3
Format : UTF-8
Codec ID : S_TEXT/UTF8
Codec ID/Info : UTF-8 Plain Text
Title : English Forced
Language : English

Text 3

Format : UTF-8
Codec ID : S_TEXT/UTF8
Codec ID/Info : UTF-8 Plain Text
Language :Polskie
Default : Yes
Forced : No

Zgłoś do moderacji pliki
Tracker


Gwiezdne Wojny 1.mkv 16.04 GB

Komentarze

avatar
Dodał: jedvid
Data: 2014-01-15 12:08:39
czy jest szansa na tzw.mini HD
avatar
Dodał: marek 24
Data: 2014-01-15 12:35:52
Było by super gdyby to było w formacie BD25 .
avatar
Dodał: pitsar
Data: 2014-01-15 13:02:00
Może wszystkie części w tym formacie i z lektorem?
avatar
Dodał: jacek340873
Data: 2014-01-15 13:40:18
Witam czy ktoś ma info na temat wersji 3D dlaczego nie pojawiła się w wersji Blue Ray pozdrawiam.
avatar
Dodał: zochal33
Data: 2014-01-15 15:11:13
na to czekałem. Mistrzu Pizda-Blada Kenobi, skrzynka wódki się należy! ;)
avatar
Dodał: PeterD
Data: 2014-01-15 15:47:25
pizdablada :-)
podziękowania, czy pozostałe części będą również?
i małe pytanie:
czy to jest wersja rozszerzona?
avatar
Dodał: robert931
Data: 2014-01-15 16:44:19
pizda dorzuć jeszcze resztę w tym formacie i tym rozmiarze
avatar
Dodał: sonywwo
Data: 2014-01-15 17:24:19
jest szansa na pozostałe części Matrix'a ?
avatar
Dodał: helios69
Data: 2014-01-16 00:54:33
mniejszy format i ludzie będą sciagac
avatar
Dodał: prezesczwa
Data: 2014-01-16 15:41:59
Czy tyklo u mnie klatkuje brzydko na dalszych planach?
avatar
Dodał: pizdablada
Data: 2014-01-16 16:27:56
jeszcze nie zassałeś do końca a już narzekasz
avatar
Dodał: prezesczwa
Data: 2014-01-16 16:57:36
nie narzekam tylko pytam czy ktos tez tak ma ze obraz nie jest plynny
avatar
Dodał: pizdablada
Data: 2014-01-16 17:25:58
u mnie na tv Samsungu hula az miło
avatar
Dodał: prezesczwa
Data: 2014-01-17 16:31:19
Marka telewizora ma tu niewielkie znaczenie, zwlaszcza ze jest to tylko odbiornik sygnalu. Ja odtwarzam na telewizorze przez hdmi z pc poprzez vlc playera. Moze inny program polecacie do 60fps?
PS. komputer tez slaby nie jest
avatar
Dodał: pizdablada
Data: 2014-01-18 08:00:55
ma i to duże,na kilku tv LG w trakcie oglądania filmów hd po jakimś czasie dżwięk się rozjeżdzał(testowałem chyba na 4 sztukach)Ja mam Samsunga tv z prcckiem 2rdzeniowym, A W ROBOCIE MAM KOMPA 2X 3,6 GHZ I FILMY 60 FPS 1080P SIĘ ZACINAJA,a na tv wsio idzie płynnie.Również na odtwarzaczu hd tez mi się tną,mimo że prawie wszystkie formaty łyka.
spróbuj the kmplayer,ja go używam,czyta wsio.
avatar
Dodał: prezesczwa
Data: 2014-01-18 10:48:50
Z kompem nie mam problemow bo na i7 2600K 8x4.8 w trybie turbo wszystko chodzi plynne, zreszta na monitorze jest tak samo, pozmienialem troche ustawienia w vlc i na 62000 blockow stracil juz tylko 3000 takze jest lepiej. Wczesniej polowa leciala w eter. Zobacze tego kmplayera tez, moze lepiej sobie poradzi
avatar
Dodał: prezesczwa
Data: 2014-01-18 12:17:00
PS. kmplayer zrobil na mnie pozytywne wrazenie, no i wszystko chodzi bardzo plynnie, vlc wywalony.
avatar
Dodał: pizdablada
Data: 2014-01-19 09:38:50
na zdrówko,jeszcze mam trochę zajebistych lektór 60 fps,ale czekam na dysk bo nie mam jak już przerabiać
pozdr
avatar
Dodał: wojtekx
Data: 2014-01-19 13:37:23
super wstawka.
niech ci bozia w dzieciach wynagrodzi.
tylko wrzuc jeszce pozostale czesci sagi w podobnej jakosci.
dziekowac.
avatar
Dodał: iwkalek
Data: 2014-01-26 13:12:42
Bardzo Dziękuje !!!
Max ()

Dodaj komentarz

<> tylko czysty tekst

Żaden z plików nie znajduje się na serwerze. Torrenty są własnością użytkowników. Administrator serwisu nie może ponieść konsekwencji za to co użytkownicy wstawiają, lub za to co czynią na stronie. Nie możesz używać tego serwisu do rozpowszechniania lub ściągania materiałów do których nie masz odpowiednich praw lub licencji. Użytkownicy odpowiedzialni są za przestrzeganie tych zasad.