Upload | Wsparcie | Staty | Staty 2 | FAQ | O nas | Forum | Pluginy | Banery | Szukaj | Moje konto
Ostatnio dodane
Filmy XviD / DivX
DVD-R
Filmy RMVB
Filmy x264
Filmy HD
Filmy 3D
Programy
Konsole
Gry
Muzyka
Teledyski
TV
Erotyka
Książki
Komiksy
Lin/Mac
Sport
Anime
dla Dzieci
GSM/PDA
Inne
info RSS

RSS

Programy

Azureus
BitComet
uTorrent
BitTornado

Linki

Saga Zmierzch: Przed świtem II *2012* [DVDRip x264 AC3][ENG][Lektor PL][AT-Team]
brak screena

Dodał: Przemqu
Data dodania:
2013-12-15 12:32:16
Rozmiar: 1.32 GB


Komentarze: 4

Pobierz torrent

Magnet Link
Produkcja: USA
Gatunek: Horror, Romans
Czas trwania: 115 min.
Premiera: 16.11.2012 - Polska, 14.11.2012 - Świat
Reżyseria: Bill Condon
Scenariusz: Melissa Rosenberg

Opis:

Bella i Edward są wreszcie naprawdę szczęśliwi. Ona należy już w pełni do świata swego ukochanego. Jest istotą nieśmiertelną, obdarzoną niezwykłą mocą. On ma przy sobie dwie ukochane kobiety – żonę i córeczkę Renesmee. Wydaje się, że nic już nie może zmącić ich szczęścia. A jednak rodzina Cullenów staje w obliczu nowego, ogromnego zagrożenia. Gniew Volturi jeszcze nigdy nie był tak wielki. Edward zwołuje wampiry z różnych zakątków świata, aby przeciwstawić się nieuniknionemu atakowi. Do obrońców Belli i jej dziecka przyłącza się niespodziewanie Jacob. Dojdzie do walki, która raz na zawsze rozstrzygnie los nieśmiertelnych mieszkańców Forks i podda próbie miłość, która przecież miała trwać wiecznie.

Obsada:

Kristen Stewart ... Bella Swan
Robert Pattinson ... Edward Cullen
Dakota Fanning ... Jane
Taylor Lautner ... Jacob Black
Maggie Grace ... Irina Denali
Ashley Greene ... Alice Cullen
Jackson Rathbone ... Jasper Hale
Nikki Reed ... Rosalie Hale

Dane techniczne:

Format : Matroska
Format version : Version 2
File size : 1.32 GiB
Duration : 1h 50mn
Overall bit rate : 1 704 Kbps
Writing application : HandBrake 0.9.5
Writing library : libmkv 0.6.4.1

Video
ID : 1
Format : AVC
Format/Info : Advanced Video Codec
Format profile : Main@L3.0
Format settings, CABAC : Yes
Format settings, ReFrames : 4 frames
Codec ID : V_MPEG4/ISO/AVC
Duration : 1h 50mn
Bit rate : 774 Kbps
Width : 720 pixels
Height : 400 pixels
Display aspect ratio : 16:9
Frame rate mode : Constant
Frame rate : 25.000 fps
Color space : YUV
Chroma subsampling : 4:2:0
Bit depth : 8 bits
Scan type : Progressive
Bits/(Pixel*Frame) : 0.108
Stream size : 612 MiB (45%)
Writing library : x264 core 112
Encoding settings : cabac=1 / ref=2 / deblock=1:-1:-1 / analyse=0x1:0x111 / me=hex / subme=6 / psy=1 / psy_rd=1.00:0.00 / mixed_ref=0 / me_range=16 / chroma_me=1 / trellis=0 / 8x8dct=0 / cqm=0 / deadzone=21,11 / fast_pskip=1 / chroma_qp_offset=-2 / threads=12 / sliced_threads=0 / nr=0 / decimate=1 / interlaced=0 / constrained_intra=0 / bframes=2 / b_pyramid=2 / b_adapt=1 / b_bias=0 / direct=1 / weightb=0 / open_gop=0 / weightp=2 / keyint=250 / keyint_min=25 / scenecut=40 / intra_refresh=0 / rc_lookahead=40 / rc=crf / mbtree=1 / crf=20.0 / qcomp=0.60 / qpmin=3 / qpmax=51 / qpstep=4 / ip_ratio=1.40 / aq=1:1.00
Language : English
Default : Yes
Forced : No
Color primaries : BT.601 NTSC
Transfer characteristics : BT.709
Matrix coefficients : BT.601

Audio #1
ID : 2
Format : AC-3
Format/Info : Audio Coding 3
Mode extension : CM (complete main)
Format settings, Endianness : Big
Codec ID : A_AC3
Duration : 1h 50mn
Bit rate mode : Constant
Bit rate : 448 Kbps
Channel(s) : 6 channels
Channel positions : Front: L C R, Side: L R, LFE
Sampling rate : 48.0 KHz
Bit depth : 16 bits
Compression mode : Lossy
Stream size : 354 MiB (26%)
Language : English
Default : Yes
Forced : No

Audio #2
ID : 3
Format : AC-3
Format/Info : Audio Coding 3
Mode extension : CM (complete main)
Format settings, Endianness : Big
Codec ID : A_AC3
Duration : 1h 50mn
Bit rate mode : Constant
Bit rate : 448 Kbps
Channel(s) : 6 channels
Channel positions : Front: L C R, Side: L R, LFE
Sampling rate : 48.0 KHz
Bit depth : 16 bits
Compression mode : Lossy
Stream size : 354 MiB (26%)
Language : Polish
Default : No
Forced : No

Zgłoś do moderacji pliki
Tracker


The Twilight Saga Breaking Dawn Part 2 (2012) [DVDRip x264 AC3][PL][ENG][AT-Team].mkv.mkv 1.32 GB
AT-TEAM old movie.jpg 140.78 KB
AT-TEAM.jpg 36.66 KB
Read iNFO.txt 2.07 KB

Komentarze

avatar
Dodał: violka2308
Data: 2013-12-16 23:47:14
brak lektora!!!
avatar
Dodał: izabela255
Data: 2013-12-17 20:38:20
potwierdzam
avatar
Dodał: jakub123
Data: 2013-12-24 00:17:59
lektor jest...macie nawet w danych technicznych...ściągnijcie sobie VLC media player klikacie prawym na obraz jak już film leci wybieracie dźwięk i jest polski :)
avatar
Dodał: ASTRAL BODY
Data: 2014-02-20 14:09:40
lektora nie ma, bo jak zrozumiał co mu przyszło tłumaczyc, to strzelił sobie w łeb.
Max ()

Dodaj komentarz

<> tylko czysty tekst

Żaden z plików nie znajduje się na serwerze. Torrenty są własnością użytkowników. Administrator serwisu nie może ponieść konsekwencji za to co użytkownicy wstawiają, lub za to co czynią na stronie. Nie możesz używać tego serwisu do rozpowszechniania lub ściągania materiałów do których nie masz odpowiednich praw lub licencji. Użytkownicy odpowiedzialni są za przestrzeganie tych zasad.