Upload | Wsparcie | Staty | Staty 2 | FAQ | O nas | Forum | Pluginy | Banery | Szukaj | Moje konto
Ostatnio dodane
Filmy XviD / DivX
DVD-R
Filmy RMVB
Filmy x264
Filmy HD
Filmy 3D
Programy
Konsole
Gry
Muzyka
Teledyski
TV
Erotyka
Książki
Komiksy
Lin/Mac
Sport
Anime
dla Dzieci
GSM/PDA
Inne
info RSS

RSS

Programy

Azureus
BitComet
uTorrent
BitTornado

Linki

Wstrząsy - Tremors (1990) [BDRip.x264.Dual Audio AC3] [Lektor i Napisy PL]
brak screena

Dodał: ale13
Data dodania:
2013-11-11 13:12:12
Rozmiar: 3.44 GB


Komentarze: 11

Pobierz torrent

Magnet Link
gatunek: Horror, Komedia, Sci-Fi
data premiery: 1990-01-19
reżyseria Ron Underwood
scenariusz S.S. Wilson
zdjęcia Alexander Gruszynski, Reba McEntire
czas: 01:35:38

[url]http://www.imdb.com/title/tt0100814/ [/url]

Natives of a small isolated town defend themselves against strange underground creatures
which are killing them one by one.

Niewielkie miasteczko Perfection w stanie Nevada, które zamieszkuje niewiele osób, nie
mających tu wielkich perspektyw. Dlatego dwie złote rączki, Val i Earl, planują wyjechać
z niego w poszukiwaniu lepszego życia. Jednak zawsze, gdy mieli to uczynić, zatrzymywali
ich mieszkańcy, którzy za ich pracę oferowali darmowy "browar". Wydaje się, że i tym razem
nic nie jest w stanie ich zatrzymać, lecz w mieście zaczynają mieć miejsce dziwaczne morderstwa.

[img]http://www.iv.pl/images/78461152030650295616.jpg[/img]

Obsada:

Kevin Bacon ... Valentine McKee
Fred Ward ... Earl Bassett
Finn Carter ... Rhonda LeBeck
Reba McEntire ... Heather Gummer

Dane Techniczne:

Format : Matroska
Format version : Version 4 / Version 2
File size : 3.37 GiB
Duration : 1h 35mn
Overall bit rate : 5 049 Kbps
Movie name : Tremors (1990)_Rip.-alE13_aletorrenty.pl
Encoded date : UTC 2013-11-11 08:52:11
Writing application : mkvmerge v6.5.0
Writing library : libebml v1.3.0 + libmatroska v1.4.1

Video
ID : 1
Format : AVC
Format/Info : Advanced Video Codec
Format profile : Main@L4.0
Format settings, CABAC : Yes
Format settings, ReFrames : 1 frame
Codec ID : V_MPEG4/ISO/AVC
Duration : 1h 35mn
Bit rate : 4 200 Kbps
Width : 1 920 pixels
Height : 1 040 pixels
Display aspect ratio : 1.85:1
Frame rate mode : Constant
Frame rate : 23.976 fps
Color space : YUV
Chroma subsampling : 4:2:0
Bit depth : 8 bits
Scan type : Progressive
Bits/(Pixel*Frame) : 0.088
Stream size : 2.71 GiB (80%)
Title : Tremors (1990)_Rip.-alE13
Writing library : x264 core 129

Audio #1
ID : 2
Format : AC-3
Format/Info : Audio Coding 3
Mode extension : CM (complete main)
Format settings, Endianness : Big
Codec ID : A_AC3
Duration : 1h 35mn
Bit rate mode : Constant
Bit rate : 384 Kbps
Channel count : 6 channels
Channel positions : Front: L C R, Side: L R, LFE
Sampling rate : 48.0 KHz
Bit depth : 16 bits
Compression mode : Lossy
Delay relative to video : 1s 350ms
Stream size : 263 MiB (8%)
Title : Tremors (1990)-alE13_AC3 @ 384 Kbps

Audio #2
ID : 3
Format : AC-3
Format/Info : Audio Coding 3
Mode extension : CM (complete main)
Format settings, Endianness : Big
Codec ID : A_AC3
Duration : 1h 35mn
Bit rate mode : Constant
Bit rate : 512 Kbps
Channel count : 2 channels
Channel positions : Front: L R
Sampling rate : 48.0 KHz
Bit depth : 16 bits
Compression mode : Lossy
Stream size : 350 MiB (10%)
Title : Tremors (1990)-alE13_AC3 @ 512 Kbps

Text #1
ID : 4
Format : UTF-8
Codec ID : S_TEXT/UTF8
Codec ID/Info : UTF-8 Plain Text
Title : Tremors (1990)-alE13
Language : Polish

Text #2
ID : 5
Format : UTF-8
Codec ID : S_TEXT/UTF8
Codec ID/Info : UTF-8 Plain Text
Title : Tremors (1990)-alE13
Language : English

[img]http://www.iv.pl/images/67722831352029396067.jpg[/img]
[img]http://www.iv.pl/images/93644018268087120440.jpg[/img]
[img]http://www.iv.pl/images/91489147182716676473.jpg[/img]

Zgłoś do moderacji pliki
Tracker


Tremors (1990)-alE13.mkv 3.37 GB
subtitles 45.83 MB
sample.mkv 27.18 MB
TT.jpg 233.47 KB
Nostalgie11.jpg 185.34 KB
Poster.jpg 98.41 KB
subtitles 66.11 KB
subtitles 61.40 KB
txt.jpg 28.98 KB

Komentarze

avatar
Dodał: lechu33
Data: 2013-11-11 15:08:00
dzieki 2 wstaw jeszcze
avatar
Dodał: medet
Data: 2013-11-11 16:36:01
Podziękowanie za klasyk!
Prośba wielka o 2 i 3 - jeśli w posiadaniu.
avatar
Dodał: ale13
Data: 2013-11-11 17:26:13
Reszta to juz nie ten klimat:D

Może kto inny wstawi.
avatar
Dodał: didymus
Data: 2013-11-11 18:20:50
fajno
avatar
Dodał: didymus
Data: 2013-11-11 18:21:57
ale nie to żebym się czepiał, uwielbiam wstawki z Dual Audio, ale po zrzutach jakiś słaby ten rip, pixeloza w porównaniu z publichd czy yify
myślałem że ripowanie najbardziej widać na głębi czerni i ruchomych scenach
avatar
Dodał: ale13
Data: 2013-11-11 19:23:05
Ja proponuje stamtąd sciagać ,ok???

A nie odemnie.

Pozdrowiła.
avatar
Dodał: Waltari
Data: 2013-11-13 12:49:36
Widzialem chyba cztery czesci, ale nie sadze, zeby wydali je na BluRay. Juz serial jest lepszy niz chociazby trzecia czesc. Wsztystko to bardzo niszowe i tanie, nie dla kazdego.
avatar
Dodał: endzio_1979
Data: 2013-11-13 21:43:16
a gdzie reszta tremord 2,3,4,5 gdzie są heeeeeeee
avatar
Dodał: masterciastek
Data: 2013-11-20 20:02:08
kur.. polska 20 sedujacych a iodzie mi 30kb ja sam oddaje 80kb
banda zydow
avatar
Dodał: xase
Data: 2013-11-22 20:31:12
czekam. na 2 . 3 i 4 oczywiście ;]
avatar
Dodał: wosek
Data: 2014-04-20 20:37:06
mam wielka prosbe. czy istnieje szansa abys wrzucil czesc 2,3,4 w tak dobrej jakosci z lektorem. bylbym naprawde wdzieczny. dzieki wielkie za piersza czesc bardzo dobra jakosc.
Max ()

Dodaj komentarz

<> tylko czysty tekst

Żaden z plików nie znajduje się na serwerze. Torrenty są własnością użytkowników. Administrator serwisu nie może ponieść konsekwencji za to co użytkownicy wstawiają, lub za to co czynią na stronie. Nie możesz używać tego serwisu do rozpowszechniania lub ściągania materiałów do których nie masz odpowiednich praw lub licencji. Użytkownicy odpowiedzialni są za przestrzeganie tych zasad.