Upload | Wsparcie | Staty | Staty 2 | FAQ | O nas | Forum | Pluginy | Banery | Szukaj | Moje konto
Ostatnio dodane
Filmy XviD / DivX
DVD-R
Filmy RMVB
Filmy x264
Filmy HD
Filmy 3D
Programy
Konsole
Gry
Muzyka
Teledyski
TV
Erotyka
Książki
Komiksy
Lin/Mac
Sport
Anime
dla Dzieci
GSM/PDA
Inne
info RSS

RSS

Programy

Azureus
BitComet
uTorrent
BitTornado

Linki

Gwiezdne Wrota - Stargate (1994) [DVDRip.x264.AC3] [Lektor i Napisy PL] [AT-Team]
brak screena

Dodał: Przemqu
Data dodania:
2013-11-01 14:58:17
Rozmiar: 2.09 GB


Komentarze: 0

Pobierz torrent

Magnet Link
gatunek: Przygodowy, Sci-Fi
produkcja: Francja, USA
premiera: 3 marca 1995 (Polska), 28 października 1994 (świat)
reżyseria: Roland Emmerich
scenariusz: Roland Emmerich, Dean Devlin

Trailer:
http://www.youtube.com/watch?v=kiJtZUPvJxY

Filmweb: 7,2/10 z 40.006 głosów
http://www.filmweb.pl/Gwiezdne.Wrota#

IMDB: 6,9/10 from 112 973 users
http://www.imdb.com/title/tt0111282/?ref_=fn_al_tt_2

Opis:

U podnóża piramidy w Gizie ekipa archeologów znajduje tajemniczy metalowy pierścień. Egiptolog Daniel Jackson odkrywa, że jest on bramą do innego miejsca we wszechświecie.

Storyline:

In 1928, in Egypt, a strange device is found by an expedition. In the present days, the outcast linguist Dr. Daniel Jackson is invited by a mysterious woman to decipher an ancient hieroglyph in a military facility. Soon he finds that the device was developed by an advanced civilization and opens a portal to teletransport to another planet. Dr. Jackson is invited to join a military team under the command of Colonel Jonathan 'Jack' O'Neil that will explore the new world. They find a land that recalls Egypt and humans in a primitive culture that worship and are slaves to Ra, the God of the Sun. But soon they discover the secret of the mysterious "stargate".

Cast:

Kurt Russell ... Col. Jonathan 'Jack' O'Neil
James Spader ... Dr. Daniel Jackson
Jaye Davidson ... Ra
Viveca Lindfors ... Catherine Langford
Alexis Cruz ... Skaara
Mili Avital ... Sha'uri
Leon Rippy ... General W.O. West
John Diehl ... Lieutenant Kawalsky
Carlos Lauchu ... Anubis
Djimon Hounsou ... Horus (as Djimon)
Erick Avari ... Kasuf
French Stewart ... Lieutenant Ferretti
Gianin Loffler ... Nabeh
Christopher John Fields ... Freeman
Derek Webster ... Brown

Info:

Format : Matroska
Format version : Version 4 / Version 2
File size : 2.09 GiB
Duration : 2h 4mn
Overall bit rate : 2 398 Kbps
Movie name : Gwiezdne Wrota (1994) - Dla was od AT-Team
Encoded date : UTC 2013-11-01 11:47:20
Writing application : mkvmerge v6.3.0 ('You can't stop me!') built on Jun 27 2013 22:06:07
Writing library : libebml v1.3.0 + libmatroska v1.4.0

Video
ID : 1
Format : AVC
Format/Info : Advanced Video Codec
Format profile : High@L3.0
Format settings, CABAC : Yes
Format settings, ReFrames : 4 frames
Codec ID : V_MPEG4/ISO/AVC
Duration : 2h 4mn
Bit rate : 1 500 Kbps
Width : 704 pixels
Height : 304 pixels
Display aspect ratio : 2.35:1
Frame rate mode : Constant
Frame rate : 25.000 fps
Color space : YUV
Chroma subsampling : 4:2:0
Bit depth : 8 bits
Scan type : Progressive
Bits/(Pixel*Frame) : 0.280
Stream size : 1.27 GiB (61%)
Title : AT-Team
Writing library : x264 core 112
Encoding settings : cabac=1 / ref=3 / deblock=1:-1:-1 / analyse=0x3:0x113 / me=hex / subme=7 / psy=1 / psy_rd=1.00:0.15 / mixed_ref=1 / me_range=16 / chroma_me=1 / trellis=1 / 8x8dct=1 / cqm=0 / deadzone=21,11 / fast_pskip=1 / chroma_qp_offset=-3 / threads=12 / sliced_threads=0 / nr=0 / decimate=1 / interlaced=0 / constrained_intra=0 / bframes=3 / b_pyramid=2 / b_adapt=2 / b_bias=0 / direct=1 / weightb=1 / open_gop=0 / weightp=2 / keyint=250 / keyint_min=25 / scenecut=40 / intra_refresh=0 / rc_lookahead=50 / rc=2pass / mbtree=1 / bitrate=1500 / ratetol=1.0 / qcomp=0.60 / qpmin=3 / qpmax=51 / qpstep=4 / cplxblur=20.0 / qblur=0.5 / ip_ratio=1.40 / aq=1:1.00
Language : English
Default : Yes
Forced : No
Color primaries : BT.601 NTSC
Transfer characteristics : BT.709
Matrix coefficients : BT.601

Audio #1
ID : 2
Format : AC-3
Format/Info : Audio Coding 3
Mode extension : CM (complete main)
Format settings, Endianness : Big
Codec ID : A_AC3
Duration : 2h 4mn
Bit rate mode : Constant
Bit rate : 448 Kbps
Channel count : 6 channels
Channel positions : Front: L C R, Side: L R, LFE
Sampling rate : 48.0 KHz
Bit depth : 16 bits
Compression mode : Lossy
Stream size : 400 MiB (19%)
Title : AT-Team
Language : English
Default : No
Forced : No

Audio #2
ID : 3
Format : AC-3
Format/Info : Audio Coding 3
Mode extension : CM (complete main)
Format settings, Endianness : Big
Codec ID : A_AC3
Duration : 2h 4mn
Bit rate mode : Constant
Bit rate : 448 Kbps
Channel count : 6 channels
Channel positions : Front: L C R, Side: L R, LFE
Sampling rate : 48.0 KHz
Bit depth : 16 bits
Compression mode : Lossy
Stream size : 400 MiB (19%)
Title : AT-Team
Language : Polish
Default : Yes
Forced : No

Text #1
ID : 4
Format : VobSub
Muxing mode : zlib
Codec ID : S_VOBSUB
Codec ID/Info : The same subtitle format used on DVDs
Title : AT-Team
Language : Polish
Default : No
Forced : No

Screen:

http://imageshack.us/a/img585/5229/fm7z.png
http://imageshack.us/a/img405/4603/vag0.png
http://imageshack.us/a/img850/2320/ubd2.png

Zgłoś do moderacji pliki
Tracker


Komentarze

Max ()

Dodaj komentarz

<> tylko czysty tekst

Żaden z plików nie znajduje się na serwerze. Torrenty są własnością użytkowników. Administrator serwisu nie może ponieść konsekwencji za to co użytkownicy wstawiają, lub za to co czynią na stronie. Nie możesz używać tego serwisu do rozpowszechniania lub ściągania materiałów do których nie masz odpowiednich praw lub licencji. Użytkownicy odpowiedzialni są za przestrzeganie tych zasad.