Upload | Wsparcie | Staty | Staty 2 | FAQ | O nas | Forum | Pluginy | Banery | Szukaj | Moje konto
Ostatnio dodane
Filmy XviD / DivX
DVD-R
Filmy RMVB
Filmy x264
Filmy HD
Filmy 3D
Programy
Konsole
Gry
Muzyka
Teledyski
TV
Erotyka
Książki
Komiksy
Lin/Mac
Sport
Anime
dla Dzieci
GSM/PDA
Inne
info RSS

RSS

Programy

Azureus
BitComet
uTorrent
BitTornado

Linki

Człowiek ze stali - Man of Steel *2013* [MULTi.720p.BluRay.x264.DTS] [Lektor i Napisy PL][AT-TEAM]
brak screena

Dodał: Przemqu
Data dodania:
2013-10-19 01:35:41
Rozmiar: 7.55 GB


Komentarze: 7

Pobierz torrent

Magnet Link
Tytuł Oryginalny: Man of Steel

Rok: 2013
Czas: 2 godz. 23 min. minut
Ocena: 6,8 (22.187 glosow)
Ranking: 2744. w rankingu światowym
Reżyseria: Zack Snyder
Scenariusz: David S. Goyer
Premiera polska: 21 czerwca 2013
Premiera swiatowa: 10 czerwca 2013
Produkcja: Kanada, USA, Wielka Brytania
Gatunek: Akcja, Sci-Fi

Ocena: 6,8 (22.187 glosow)
Ranking: 2744. w rankingu światowym
http://www.filmweb.pl/film/Cz%C5%82owiek+ze+stali-2013-305388

IMDB: 7,6/10 from 242 436 users
http://www.imdb.com/title/tt0770828/?ref_=nv_sr_1

Opis:

Młody chłopiec dowiaduje się, że jest nie z tej ziemi i posiada nadprzyrodzone moce.
Jako młody mężczyzna podróżuje, aby dowiedzieć się, skąd pochodzi i jaka jest jego misja.
Ukryty w nim bohater musi się ujawnić, jeśli ma ocalić świat przed zagładą i stać się symbolem nadziei całej ludzkości.

Storyline:

A young boy learns that he has extraordinary powers and is not of this Earth.
As a young man, he journeys to discover where he came from and what he was sent here to do.
But the hero in him must emerge if he is to save the world from annihilation
and become the symbol of hope for all mankind.

Stars:

Henry Cavill ... Clark Kent / Kal-El
Amy Adams ... Lois Lane
Michael Shannon ... General Zod
Diane Lane ... Martha Kent
Russell Crowe ... Jor-El
Antje Traue ... Faora-Ul
Harry Lennix ... General Swanwick
Richard Schiff ... Dr. Emil Hamilton
Christopher Meloni... Colonel Nathan Hardy
Kevin Costner ... Jonathan Kent
Ayelet Zurer ... Lara Lor-Van
Laurence Fishburne... Perry White
Dylan Sprayberry... Clark Kent (13 Years)
Cooper Timberline... Clark Kent (9 Years)
Richard Cetrone ... Tor-An

Info:

Source: Bluray
Languages: English [DTS], Polish [AC3]
Subtitles: Polish, English

Format : Matroska
Format version : Version 4 / Version 2
File size : 7.54 GiB
Duration : 2h 23mn
Overall bit rate : 7 550 Kbps
Movie name : Man of Steel 2013 [MULTi.720p.BluRay.x264.DTS][ENG][Polish Lektor & Sub][AT-TEAM]
Encoded date : UTC 2013-10-18 23:01:57
Writing application : mkvmerge v6.2.0 ('Promised Land') built on Apr 28 2013 12:22:01
Writing library : libebml v1.3.0 + libmatroska v1.4.0

Video
ID : 1
Format : AVC
Format/Info : Advanced Video Codec
Format profile : High@L4.1
Format settings, CABAC : Yes
Format settings, ReFrames : 5 frames
Codec ID : V_MPEG4/ISO/AVC
Bit rate : 5 250 Kbps
Nominal bit rate : 5 525 Kbps
Width : 1 280 pixels
Height : 534 pixels
Display aspect ratio : 2.40:1
Frame rate mode : Variable
Original frame rate : 23.976 fps
Color space : YUV
Chroma subsampling : 4:2:0
Bit depth : 8 bits
Scan type : Progressive
Bits/(Pixel*Frame) : 0.337
Title : AT-TEAM
Writing library : x264 core 135 r2345 f0c1c53
Language : English
Default : Yes
Forced : No

Audio #1
ID : 2
Format : AC-3
Format/Info : Audio Coding 3
Mode extension : CM (complete main)
Format settings, Endianness : Big
Codec ID : A_AC3
Duration : 2h 23mn
Bit rate mode : Constant
Bit rate : 640 Kbps
Channel(s) : 6 channels
Channel positions : Front: L C R, Side: L R, LFE
Sampling rate : 48.0 KHz
Bit depth : 16 bits
Compression mode : Lossy
Stream size : 655 MiB (8%)
Title : AT-TEAM
Language : Polish
Default : Yes
Forced : No

Audio #2
ID : 3
Format : DTS
Format/Info : Digital Theater Systems
Codec ID : A_DTS
Duration : 2h 23mn
Bit rate mode : Constant
Bit rate : 1 510 Kbps
Channel(s) : 6 channels
Channel positions : Front: L C R, Side: L R, LFE
Sampling rate : 48.0 KHz
Bit depth : 24 bits
Compression mode : Lossy
Stream size : 1.51 GiB (20%)
Title : AT-TEAM
Language : English
Default : No
Forced : No

Text #1
ID : 4
Format : PGS
Muxing mode : zlib
Codec ID : S_HDMV/PGS
Codec ID/Info : The same subtitle format used on BDs/HD-DVDs
Title : AT-TEAM
Language : English
Default : No
Forced : No

Text #2
ID : 5
Format : UTF-8
Codec ID : S_TEXT/UTF8
Codec ID/Info : UTF-8 Plain Text
Title : AT-TEAM
Language : Polish
Default : No
Forced : No

Screen's:

http://i.imgbox.com/acegLsiz.jpg
http://i.imgbox.com/acx5g9LU.png
http://i.imgbox.com/adw07D8Y.png
http://i.imgbox.com/adu1tYTY.png

Zgłoś do moderacji pliki
Tracker


Man of Steel 2013 [MULTi.720p.BluRay.x264.DTS][ENG][Polish Lektor & Sub][AT-TEAM].mkv 7.54 GB
Man of Steel 2013 [MULTi.720p.BluRay.x264.DTS][ENG][Polish Lektor & Sub][AT-TEAM].srt 157.98 KB
man of steel S.jpg 51.58 KB
AT-TEAM.jpg 36.66 KB
Read iNFO.txt 2.07 KB

Komentarze

avatar
Dodał: soxol
Data: 2013-10-19 11:24:35
SeeeD !!!!!!!
avatar
Dodał: baraqs
Data: 2013-10-19 21:38:01
Człowiek ze stali?
Mogli go solą posypać, rdza by go wjeb... :P
avatar
Dodał: okapik
Data: 2013-10-20 08:51:01
Moze ktoś posedowac chciałbym go dziś obejrzeć
avatar
Dodał: henk69
Data: 2013-10-20 10:40:51
Bez jaj od wczoraj ściągam i mam dopiero 30%, sam daje na maxa ;
avatar
Dodał: spooky79
Data: 2013-10-20 18:17:34
nuda nuda nuda .. możan zobaczyć zwiastun i już widzieliście cały film , ciągle jedno i to samo ,zero fabuły same efekty .Jeszcze raz nuda.
avatar
Dodał: 135michal135
Data: 2013-10-22 22:05:56
zwiastun jest ciekawszy niż sam film
avatar
Dodał: mercinek7mln
Data: 2014-04-27 15:38:56
spooky79 miałem ci odpuścić ale ty w każdej wstawce jedziesz na ten film.
"nuda nuda nuda,ciągle jedno i to samo ,zero.Jeszcze raz nuda. " -jak bym czytał twój życiorys ...
jesteś głupi bo oglądasz film czarno-biały a potem wszystkim się żalisz że nie było w nim kolorów.
Jak na film ze stajni DC czyli na podstawię komiksu fabuła genialna i treści całe mnóstwo .!
Max ()

Dodaj komentarz

<> tylko czysty tekst

Żaden z plików nie znajduje się na serwerze. Torrenty są własnością użytkowników. Administrator serwisu nie może ponieść konsekwencji za to co użytkownicy wstawiają, lub za to co czynią na stronie. Nie możesz używać tego serwisu do rozpowszechniania lub ściągania materiałów do których nie masz odpowiednich praw lub licencji. Użytkownicy odpowiedzialni są za przestrzeganie tych zasad.