Upload | Wsparcie | Staty | Staty 2 | FAQ | O nas | Forum | Pluginy | Banery | Szukaj | Moje konto
Ostatnio dodane
Filmy XviD / DivX
DVD-R
Filmy RMVB
Filmy x264
Filmy HD
Filmy 3D
Programy
Konsole
Gry
Muzyka
Teledyski
TV
Erotyka
Książki
Komiksy
Lin/Mac
Sport
Anime
dla Dzieci
GSM/PDA
Inne
info RSS

RSS

Programy

Azureus
BitComet
uTorrent
BitTornado

Linki

Amityville 3-D (1983) [BRRip.x264.Dual Audio.AC3][Napisy i Lektor PL][Eng]
brak screena

Dodał: ale13
Data dodania:
2013-10-10 08:26:14
Rozmiar: 3.34 GB


Komentarze: 5

Pobierz torrent

Magnet Link
Film w wersji 3D-Half Over Under.

gatunek: Horror
produkcja: USA
premiera: 18-11-1983
reżyseria: Richard Fleischer
scenariusz: David Ambrose William Wales
muzyka: Howard Blake
zdjęcia: Fred Schuler
czas: 01:33:10

http://www.imdb.com/title/tt0085159/

opis:

A reporter moves into the ominous Long Island house to debunk it of the recent
supernatural events and becomes besieged by the evil manifestations which are
connected to a hell-spawn demon lurking in the basement.

Do domu w Amityville wprowadzają się państwo Baxtorowie. Wcześniej spotkało ich
nieszczęście, mianowicie ich córka zginęła w wypadku. W domu ma miejsce dziwne
zjawisko: matka, która jest na granicy załamania newrowego, widzi swoją córkę na jawie. Aby to wytłumaczyć, wzywa specjalistę od zjawisk paranormalnych, który chce rozwikłać zagadkę.

http://www.iv.pl/images/35715721188629910070.jpg

obsada:

Tony Roberts ... John Baxter
Tess Harper ... Nancy Baxter
Robert Joy ... Elliot West

dane techniczne:

Amityville 3-D(1983)3D-alE13.mkv
Format : Matroska
Format version : Version 2
File size : 3.31 GiB
Duration : 1h 33mn
Overall bit rate : 5 084 Kbps
Movie name : Amityville3-D(1983)3D_Rip.-alE13_AT-TEAM
Encoded date : UTC 2013-10-10 03:41:49
Writing application : mkvmerge v5.1.0
Writing library : libebml v1.2.3 + libmatroska v1.3.0

Video
ID : 1
Format : AVC
Format/Info : Advanced Video Codec
Format profile : High@L4.0
Format settings, CABAC : Yes
Format settings, ReFrames : 2 frames
Muxing mode : Header stripping
Codec ID : V_MPEG4/ISO/AVC
Duration : 1h 33mn
Bit rate : 4 220 Kbps
Width : 1 920 pixels
Height : 952 pixels
Display aspect ratio : 2.017
Frame rate mode : Constant
Frame rate : 23.976 fps
Color space : YUV
Chroma subsampling : 4:2:0
Bit depth : 8 bits
Scan type : Progressive
Bits/(Pixel*Frame) : 0.096
Stream size : 2.68 GiB (81%)
Title : Amityville3-D(1983)3D_Rip.-alE13_AT-TEAM
Writing library : x264 core 129

Audio #1
ID : 2
Format : AC-3
Format/Info : Audio Coding 3
Mode extension : CM (complete main)
Format settings, Endianness : Big
Muxing mode : Header stripping
Codec ID : A_AC3
Duration : 1h 33mn
Bit rate mode : Constant
Bit rate : 224 Kbps
Channel count : 2 channels
Channel positions : Front: L R
Sampling rate : 48.0 KHz
Bit depth : 16 bits
Compression mode : Lossy
Delay relative to video : 1s 800ms
Stream size : 149 MiB (4%)
Title : Amityville3-D(1983)3D_Rip.-alE13_AT-TEAM
Language : Polish

Audio #2
ID : 3
Format : AC-3
Format/Info : Audio Coding 3
Mode extension : CM (complete main)
Format settings, Endianness : Big
Muxing mode : Header stripping
Codec ID : A_AC3
Duration : 1h 33mn
Bit rate mode : Constant
Bit rate : 640 Kbps
Channel count : 6 channels
Channel positions : Front: L C R, Side: L R, LFE
Sampling rate : 48.0 KHz
Bit depth : 16 bits
Compression mode : Lossy
Stream size : 427 MiB (13%)
Title : Amityville3-D(1983)3D_Rip.-alE13_AT-TEAM
Language : English

Text
ID : 4
Format : UTF-8
Codec ID : S_TEXT/UTF8
Codec ID/Info : UTF-8 Plain Text
Title : Amityville 3-D(1983)3D-alE13
Language : Polish

Menu
00:00:00.000 : :1
00:11:51.336 : :2
00:18:31.110 : :3
00:25:33.157 : :4
00:32:13.557 : :5
00:39:30.994 : :6
00:45:13.711 : :7
00:51:05.062 : :8
00:57:47.089 : :9
01:04:31.493 : :10
01:10:41.237 : :11
01:17:08.249 : :12

http://www.iv.pl/images/97586557954437144851.jpg
http://www.iv.pl/images/09721359408628923009.jpg
http://www.iv.pl/images/21154039533968057530.jpg

Zgłoś do moderacji pliki
Tracker


screens 107.97 KB
screens 96.60 KB
screens 74.63 KB
Amityville 3-D(1983)3D-alE13.mkv 3.31 GB
Sample.mkv 33.10 MB
Nostalgie11.jpg 185.34 KB
txt.jpg 167.88 KB
poster.jpg 66.58 KB
Amityville 3-D(1983)3D-alE13.srt 49.63 KB

Komentarze

avatar
Dodał: januszb
Data: 2013-10-10 15:42:09
nie sciągć tego nie da śie paczec w 3d
avatar
Dodał: legia1
Data: 2013-10-10 17:25:28
Tego się oglądać nie da!!!!!Nie pobierać.
avatar
Dodał: slavvik
Data: 2013-10-10 17:41:04
@januszb "śie paczec" się patrzeć na tą pisownie to istny horror.
@ale13 Dzięki drogiej pani że pamięta o tym dziale i że wstawiasz nowe pozycje,chociaż to nie mój klimat, ani rozmiar pliku.
avatar
Dodał: marekl
Data: 2013-10-13 09:42:40
po co stare filmy są przerabiane na 3D. jaki sens.
avatar
Dodał: yyy
Data: 2013-10-16 14:42:58
potwierdzam nie można zobaczyć tego filmu nie ściągać!!!!!!
Max ()

Dodaj komentarz

<> tylko czysty tekst

Żaden z plików nie znajduje się na serwerze. Torrenty są własnością użytkowników. Administrator serwisu nie może ponieść konsekwencji za to co użytkownicy wstawiają, lub za to co czynią na stronie. Nie możesz używać tego serwisu do rozpowszechniania lub ściągania materiałów do których nie masz odpowiednich praw lub licencji. Użytkownicy odpowiedzialni są za przestrzeganie tych zasad.