Upload | Wsparcie | Staty | Staty 2 | FAQ | O nas | Forum | Pluginy | Banery | Szukaj | Moje konto
Ostatnio dodane
Filmy XviD / DivX
DVD-R
Filmy RMVB
Filmy x264
Filmy HD
Filmy 3D
Programy
Konsole
Gry
Muzyka
Teledyski
TV
Erotyka
Książki
Komiksy
Lin/Mac
Sport
Anime
dla Dzieci
GSM/PDA
Inne
info RSS

RSS

Programy

Azureus
BitComet
uTorrent
BitTornado

Linki

Hannibal :Po Drugiej Stronie Maski - Hannibal Rising *2007*[1080p.AC3.5.1.BluRay.x264-LEON 345] [Lektor i Napisy PL]
brak screena

Dodał: Leon 345
Data dodania:
2013-10-07 13:18:29
Rozmiar: 9.73 GB


Komentarze: 22

Pobierz torrent

Magnet Link
Hannibal :Po Drugiej Stronie Maski - Hannibal Rising *2007*
========================================================

IMDB http://www.imdb.com/title/tt0367959/?ref_=sr_3

Produkcja: Czechy, Francja, USA, Wielka Brytania, Włochy
Gatunek: Thriller
Data premiery: 2007-02-23 (Polska), 2007-02-07 (Świat)
Reżyseria: Peter Webber
Scenariusz: Thomas Harris
Zdjęcia: Ben Davis
Muzyka: Thomas Newman, Shigeru Umebayashi
Na podstawie: powieści Thomasa Harrisa

II wojna światowa. Arystokratyczna rodzina Lecterów zostaje wymordowana na oczach Hannibala. On sam zaś trafia do sowieckiego sierocińca. W nieprawdopodobny sposób udaje mu się stamtąd uciec i dotrzeć do Francji. Tam trafia pod opiekę pani Murasaki, wdowy po wuju. Jej opieka łagodzi cierpienie, jakiego Hannibal doświadczył w dzieciństwie i podsyca w nim zainteresowanie muzyką, literaturą i malarstwem, jak również japońskimi rytuałami zabijania. Powracające wspomnienia budzą w nim w końcu mroczne pożądanie i wieczny głód krwi. Jest to początek narodzin potwora. Film oparty jest na podstawie książki Thomasa Harrisa o tym samym tytule.

General

Format : Matroska
Format version : Version 2
File size : 9.73 GiB
Duration : 2h 0mn
Overall bit rate : 11.5 Mbps
Movie name : hannibal.rising.Rip by Leon 345
Encoded date : UTC 2013-10-06 17:55:07
Writing application : mkvmerge v5.7.0 ('The Whirlwind') built on Jul 8 2012 20:08:51
Writing library : libebml v1.2.3 + libmatroska v1.3.0

Video
ID : 1
Format : AVC
Format/Info : Advanced Video Codec
Format profile : Main@L4.0
Format settings, CABAC : Yes
Format settings, ReFrames : 2 frames
Codec ID : V_MPEG4/ISO/AVC
Duration : 2h 0mn
Bit rate : 10.5 Mbps
Width : 1 920 pixels
Height : 1 080 pixels
Display aspect ratio : 16:9 (2.39:1)
Frame rate mode : Constant
Frame rate : 24.000 fps
Original frame rate : 23.976 fps
Color space : YUV
Chroma subsampling : 4:2:0
Bit depth : 8 bits
Scan type : Progressive
Bits/(Pixel*Frame) : 0.210
Stream size : 8.83 GiB (91%)
Title : Rip by Leon 345
Writing library : x264 core
Default : Yes
Forced : No
Color primaries : BT.709
Transfer characteristics : BT.709
Matrix coefficients : BT.709

Audio #1
ID : 2
Format : AC-3
Format/Info : Audio Coding 3
Mode extension : CM (complete main)
Format settings, Endianness : Big
Codec ID : A_AC3
Duration : 2h 0mn
Bit rate mode : Constant
Bit rate : 384 Kbps
Channel(s) : 6 channels
Channel positions : Front: L C R, Side: L R, LFE
Sampling rate : 48.0 KHz
Bit depth : 16 bits
Compression mode : Lossy
Stream size : 332 MiB (3%)
Title : AC3 5.1 Lektor PL
Language : Polish
Default : Yes
Forced : Yes

Audio #2
ID : 3
Format : AC-3
Format/Info : Audio Coding 3
Mode extension : CM (complete main)
Format settings, Endianness : Big
Codec ID : A_AC3
Duration : 2h 0mn
Bit rate mode : Constant
Bit rate : 448 Kbps
Channel(s) : 6 channels
Channel positions : Front: L C R, Side: L R, LFE
Sampling rate : 48.0 KHz
Bit depth : 16 bits
Compression mode : Lossy
Delay relative to video : 1s 350ms
Stream size : 387 MiB (4%)
Title : AC3 5.1 Orginal
Language : English
Default : No
Forced : No

Text #1
ID : 4
Format : UTF-8
Codec ID : S_TEXT/UTF8
Codec ID/Info : UTF-8 Plain Text
Language : Polish
Default : No
Forced : No

Text #2
ID : 5
Format : UTF-8
Codec ID : S_TEXT/UTF8
Codec ID/Info : UTF-8 Plain Text
Language : English
Default : No
Forced : No

Text #3
ID : 6
Format : UTF-8
Codec ID : S_TEXT/UTF8
Codec ID/Info : UTF-8 Plain Text
Default : Yes
Forced : Yes

Source [thx]:
V- HDTV
A-English DVD9
Polski Lektor - HDBT

Zgłoś do moderacji pliki
Tracker


Hannibal.Rising_2007(Leon 345).mkv 9.73 GB
49481_front.jpg 73.82 KB
Hannibal.Rising_2007(Leon 345).srt 37.48 KB
Hannibal.Rising_2007(Leon 345).txt 21.56 KB
Open.txt 0.14 KB

Komentarze

avatar
Dodał: kamila91_91
Data: 2013-10-07 13:44:33
CZEKAM NA SEEDA :)
avatar
Dodał: GREGMI
Data: 2013-10-07 16:19:49
Wielkie Dzięki za cały komplet w full HD
avatar
Dodał: vuku
Data: 2013-10-07 16:20:22
Witam! Dzięki bardzo !Nie jestem fanem Hannibala, ale chętnie obejrzę. Mam pytanie: jaka jest prawidłowa kolej oglądania?
Różnie piszą.
1 Manhunter
2 RED DRAGON
3 MILCZENIE OWIEC
4 HANNIBAL
CZY HANNIBAL PO DRUGIEJ STRONIE MASKI POWINNO SIĘ OBEJRZEĆ JAKO NR 1?
DZIĘKI ZA ODP.
avatar
Dodał: Leon 345
Data: 2013-10-07 17:12:45
Manhunter i Czerwony smok opowiadaja o tym samym
Manhunter był pierwszym filmem ktory zapoczatkował serie
i po sukcesach Milczenia owiec i Hannibala został chyba zapomniany a szkoda .Proponuje ogladnąć i Manhuntera i
Czerwonego smoka tak dla porównania a kolejność ogladania
1 Czerwony smok (Manhunter)
2 Milczenie owiec
3 Hannibal
4 Hannibal po drugiej stronie maski
avatar
Dodał: sonywwo
Data: 2013-10-07 21:42:30
a co Leon teraz przewidujesz za nastepną perełke wstawic ?
avatar
Dodał: zaba1405
Data: 2013-10-07 22:48:42
Leon możesz wstawić Hannibal Rising w wersji mini-HD ?? jak poprzednie części ?
avatar
Dodał: maxwil
Data: 2013-10-07 23:19:32
Leon 345 mam pytanko w środę czyli 09 10 2013 o godz 8ej na cbe europa w tv leci zajebista komedia Ten szalony,szalony świat czy masz może możliwość nagrania tego i potem zapodania go tutaj.Jeśli tak to będę Twym dłużnikiem a jeśli nie Ty to może Sonda lub ktoś inny.Pozdrawiam i czekam na odp.
avatar
Dodał: Leon 345
Data: 2013-10-07 23:29:53
maxwil
niestety

zaba1405
prawdopodobnie wstawie wersje mini

sonywwo
Nie wiem .Były prosby o kolekcje Szybkich i wściekłych
Zobaczymy

avatar
Dodał: maxwil
Data: 2013-10-08 09:08:18
Dziękuje za odp.I Pozdrawiam (szkoda)
avatar
Dodał: rodzislaw_86
Data: 2013-10-08 12:26:34
Leon, a "Wyspę" da kiedyś radę ? ;)
avatar
Dodał: sonywwo
Data: 2013-10-08 12:42:06
no ja bym się pokusił o kolekcje X-men , Volverin , Kronik Riddica , Blade , Underworld
avatar
Dodał: Leon 345
Data: 2013-10-08 13:16:53
sonywwo
Pitch Black i Kroniki Riddicka wstawilem w wersjach
kinowych i reżyserskich

torrent/780213
torrent/780831
torrent/781476
torrent/782216
avatar
Dodał: Leon 345
Data: 2013-10-08 13:53:52
rodzislaw_86
kiedyś pewnie i da :) tylko czy mi życia a Wam cierpliwości na czekanie starczy :)
avatar
Dodał: konarr76
Data: 2013-10-08 17:34:48
Może Indiana Jones?
avatar
Dodał: rodzislaw_86
Data: 2013-10-09 07:21:11
Leon,mi starczy.Bardziej się martwię,że muszę nabyć kolejny dysk,bo znowu zaczyna mi brakować miejsca;-)
avatar
Dodał: ciasteczko1706
Data: 2013-10-09 16:12:53
rodzislaw_86 mam wyspę 720p.2GB. moje wysyłanie jest średnio 75kb
avatar
Dodał: rodzislaw_86
Data: 2013-10-09 19:10:09
ciasteczko1706,dzięki za propozycje,ale chciałbym coś w DTS.Może być nawet 720:-)
avatar
Dodał: Leon 345
Data: 2013-10-09 20:17:29
rodzislaw_86
Ha Taki paradox bo na wcześniejszym wydaniu bluray
"Wyspy" nie ma audio w DTS wyobraź sobie :)
Mam akurat to wydanie i jest tylko DD 5.1 :)
(oczywiście mowa o orginalnej scieżce)
W czerwcu tego roku wyszło nowsze wydanie i juz jest
DTS-HD MA 5.1 ale nie mam dostępu i nie widziałem w sieci
avatar
Dodał: dawdi17
Data: 2013-10-10 09:48:11
Leon nie słuchaj ich. 1080p + DTS (~10gb) to najlepszy z możliwych kompromisów, nie trać czasu na mini-hd ;)
avatar
Dodał: Leon 345
Data: 2013-10-10 13:14:28
dawdi17
Ci co wolą miniHD mówią dokładnie to samo :)
avatar
Dodał: rodzislaw_86
Data: 2013-10-10 17:37:17
Jeszcze raz dzieki Leon :)
avatar
Dodał: Leon 345
Data: 2013-10-10 18:49:22
spoko :)
Max ()

Dodaj komentarz

<> tylko czysty tekst

Żaden z plików nie znajduje się na serwerze. Torrenty są własnością użytkowników. Administrator serwisu nie może ponieść konsekwencji za to co użytkownicy wstawiają, lub za to co czynią na stronie. Nie możesz używać tego serwisu do rozpowszechniania lub ściągania materiałów do których nie masz odpowiednich praw lub licencji. Użytkownicy odpowiedzialni są za przestrzeganie tych zasad.