Upload | Wsparcie | Staty | Staty 2 | FAQ | O nas | Forum | Pluginy | Banery | Szukaj | Moje konto
Ostatnio dodane
Filmy XviD / DivX
DVD-R
Filmy RMVB
Filmy x264
Filmy HD
Filmy 3D
Programy
Konsole
Gry
Muzyka
Teledyski
TV
Erotyka
Książki
Komiksy
Lin/Mac
Sport
Anime
dla Dzieci
GSM/PDA
Inne
info RSS

RSS

Programy

Azureus
BitComet
uTorrent
BitTornado

Linki

Czas zemsty - Dead Man Down (2013) [720p.BluRay.x264.DTS.AC3-LLO] [Lektor i Napisy PL]
brak screena

Dodał: AdamTRS
Data dodania:
2013-07-02 22:37:29
Rozmiar: 5.51 GB


Komentarze: 12

Pobierz torrent

Magnet Link
Tytuł: Dead Man Down
Polski tytuł: Czas zemsty
===================

Ocena: IMDB - 6.7/10 (4863), Filmweb - 4.5/10 (6)
Produkcja: USA
Gatunek: Kryminał, Thriller
Premiera: 8 marca 2013 (Świat)
Czas trwania: 93 min
Reżyseria: Niels Arden Oplev
Scenariusz: J.H. Wyman

[opis]
=================
Bohaterem filmu jest pracujący na zlecenie mafii zabójca, który zakochuje się w niegdyś pięknej, a dziś oszpeconej kobiecie. Para rusza razem na krwawą wyprawę, aby pomścić doznane krzywdy.

[obsada]
===============
Colin Farrell - Victor
Noomi Rapace - Beatrice
Dominic Cooper - Darcy
James Biberi -Ilir
Robert Vataj - Besim

[dane techniczne]
==================
Format : Matroska
Format version : Version 2
File size : 5.51 GiB
Duration : 1h 57mn
Overall bit rate : 6 694 Kbps
Movie name : LLO
Encoded date : UTC 2013-07-02 17:29:02
Writing application : mkvmerge v3.4.0 ('Rapunzel') built on May 15 2010 09:38:20
Writing library : libebml v0.8.0 + libmatroska v0.9.0

Video
ID : 1
Format : AVC
Format/Info : Advanced Video Codec
Format profile : High@L4.1
Format settings, CABAC : Yes
Format settings, ReFrames : 11 frames
Codec ID : V_MPEG4/ISO/AVC
Duration : 1h 57mn
Bit rate : 4 990 Kbps
Width : 1 280 pixels
Height : 534 pixels
Display aspect ratio : 2.40:1
Frame rate mode : Constant
Frame rate : 23.976 fps
Color space : YUV
Chroma subsampling : 4:2:0
Bit depth : 8 bits
Scan type : Progressive
Bits/(Pixel*Frame) : 0.304
Stream size : 4.00 GiB (73%)
Writing library : x264 core 133 r2334 a3ac64b
Encoding settings : cabac=1 / ref=11 / deblock=1:-3:-3 / analyse=0x3:0x113 / me=tesa / subme=11 / psy=1 / psy_rd=0.89:0.00 / mixed_ref=1 / me_range=48 / chroma_me=1 / trellis=2 / 8x8dct=1 / cqm=0 / deadzone=21,11 / fast_pskip=0 / chroma_qp_offset=-2 / threads=12 / lookahead_threads=2 / sliced_threads=0 / nr=0 / decimate=1 / interlaced=0 / bluray_compat=0 / constrained_intra=0 / bframes=8 / b_pyramid=2 / b_adapt=2 / b_bias=0 / direct=3 / weightb=1 / open_gop=0 / weightp=2 / keyint=240 / keyint_min=23 / scenecut=40 / intra_refresh=0 / rc_lookahead=80 / rc=2pass / mbtree=1 / bitrate=4990 / ratetol=1.0 / qcomp=0.72 / qpmin=0 / qpmax=69 / qpstep=4 / cplxblur=20.0 / qblur=0.5 / vbv_maxrate=50000 / vbv_bufsize=50000 / nal_hrd=none / ip_ratio=1.40 / aq=2:0.75 / zones=157880,169438,b=0.1
Language : English
Default : No
Forced : No

Audio #1
ID : 2
Format : AC-3
Format/Info : Audio Coding 3
Mode extension : CM (complete main)
Format settings, Endianness : Big
Codec ID : A_AC3
Duration : 1h 57mn
Bit rate mode : Constant
Bit rate : 192 Kbps
Channel(s) : 2 channels
Channel positions : Front: L R
Sampling rate : 48.0 KHz
Bit depth : 16 bits
Compression mode : Lossy
Stream size : 162 MiB (3%)
Language : Polish
Default : Yes
Forced : No

Audio #2
ID : 3
Format : DTS
Format/Info : Digital Theater Systems
Mode : 16
Format settings, Endianness : Big
Codec ID : A_DTS
Duration : 1h 57mn
Bit rate mode : Constant
Bit rate : 1 509 Kbps
Channel(s) : 6 channels
Channel positions : Front: L C R, Side: L R, LFE
Sampling rate : 48.0 KHz
Bit depth : 24 bits
Compression mode : Lossy
Stream size : 1.24 GiB (23%)
Language : English
Default : No
Forced : No

Text #1
ID : 4
Format : UTF-8
Codec ID : S_TEXT/UTF8
Codec ID/Info : UTF-8 Plain Text
Language : Polish
Default : No
Forced : No

Text #2
ID : 5
Format : UTF-8
Codec ID : S_TEXT/UTF8
Codec ID/Info : UTF-8 Plain Text
Language : English
Default : No
Forced : No

Text #3
ID : 6
Format : UTF-8
Codec ID : S_TEXT/UTF8
Codec ID/Info : UTF-8 Plain Text
Language : English
Default : No
Forced : No

Zgłoś do moderacji pliki
Tracker


ALADYN1111.TXT 1.24 KB
Dead.Man.Down.2013.MULTi.720p.BluRay.x264.DTS.AC3-LLO.mkv 5.51 GB
OPEN.url 0.11 KB

Komentarze

avatar
Dodał: ŁUKASZ12345678
Data: 2013-07-02 23:24:05
To jest z lektorem? bo pisze ze napisy.
avatar
Dodał: AdamTRS
Data: 2013-07-02 23:54:49
pisze jak byk Lektor i Napisy PL Pozdrawiam
avatar
Dodał: topik.50
Data: 2013-07-03 07:58:03
Adam masz może Pachnidło.
avatar
Dodał: NUKEM
Data: 2013-07-03 16:38:19
Całkiem dobry film. Dobrze mi się oglądało.
avatar
Dodał: mercinek7mln
Data: 2013-07-03 17:16:11
topik.50
poszukaj w drogerii, w ogóle to teraz w modzie są dezodoranty
avatar
Dodał: haito1
Data: 2013-07-03 17:43:15
jaka jakość panowie i panie dźwięku ?
avatar
Dodał: plankton
Data: 2013-07-03 19:52:48
stereo lipa
avatar
Dodał: tongpo7
Data: 2013-07-04 22:17:53
Adam będziesz ten film wrzucał w DVD?
avatar
Dodał: Tadeusz999
Data: 2013-07-06 14:50:27
po pierwsze nie pisze tylko jest napisane po drugie jest napisane że lektor polski ale takiego nie ma - jest tylko jedna ścieżka dźwiękowa
avatar
Dodał: rafixb28
Data: 2013-07-09 22:46:51
a po trzecie to jest lektor bo są dwie ścieżki audio, a po czwarte to jak już coś piszesz to sprawdź to wcześniej dobrze bo ludzi w błąd wprowadzasz.
avatar
Dodał: smos87
Data: 2014-02-17 19:07:06
Polecam, w miarę dobry film, aha i lektor normalnie jest, są dwie ścieżki.
avatar
Dodał: BACZY
Data: 2014-04-27 00:35:13
pls seeda
Max ()

Dodaj komentarz

<> tylko czysty tekst

Żaden z plików nie znajduje się na serwerze. Torrenty są własnością użytkowników. Administrator serwisu nie może ponieść konsekwencji za to co użytkownicy wstawiają, lub za to co czynią na stronie. Nie możesz używać tego serwisu do rozpowszechniania lub ściągania materiałów do których nie masz odpowiednich praw lub licencji. Użytkownicy odpowiedzialni są za przestrzeganie tych zasad.