Upload | Wsparcie | Staty | Staty 2 | FAQ | O nas | Forum | Pluginy | Banery | Szukaj | Moje konto
Ostatnio dodane
Filmy XviD / DivX
DVD-R
Filmy RMVB
Filmy x264
Filmy HD
Filmy 3D
Programy
Konsole
Gry
Muzyka
Teledyski
TV
Erotyka
Książki
Komiksy
Linux
Sport
Anime
dla Dzieci
GSM/PDA
Inne
info RSS

RSS

Programy

Azureus
BitComet
uTorrent
BitTornado

Linki

Filmy HD/ Wojenne
Czerwone Ogony - Red Tails (2012)[1080p.BRRip.x264.AC3][Multi Sub][Napisy PL][ENG]
brak screena

Dodał: zapalka
Data dodania:
2013-06-23 12:28:28
Rozmiar: 8.04 GB


Komentarze: 14

Pobierz torrent

Magnet Link
Czerwone Ogony - Red Tails (2012)[1080p.BRRip.x264.AC3][Multi Sub][Napisy PL][ENG]

czas trwania: 2 godz. 5 min.
gatunek: Dramat, Wojenny
premiera: 20 stycznia 2012 (świat) 2012-01-20
produkcja: USA
reżyseria: Anthony Hemingway
scenariusz: Aaron McGruder, John Ridley
muzyka: Terence Blanchard
zdjęcia: John B. Aronson

Opis:

A crew of African American pilots in the Tuskegee training program, having faced segregation
while kept mostly on the ground during World War II, are called into duty under the guidance
of Col. A.J. Bullard.

Nowy film Georga Lucas'a. Historia Tuskegee Airmen, pierwszych afrykańsko-amerykańskich
pilotów latających w szwadronie walki podczas II wojny światowej.

Obsada:

Terrence Howard Pułkownik A.J. Bullard
Cuba Gooding Jr. Major Emanuelle Stance
Tristan Wilds Ray "Junior" Gannon


General:
Unique ID : 217479626916252395679625842399508712691 (0xA39D0D75B35594F18250AE174B344CF3)
Complete name : Red Tails (2012)[1080p.BRRip.x264.AC3][Multi Sub].mkv
Format : Matroska
Format version : Version 2
File size : 7.98 GiB
Duration : 2h 5mn
Overall bit rate : 9 134 Kbps
Movie name : Red Tails (2012)
Encoded date : UTC 2013-06-21 18:46:57
Writing application : mkvmerge v5.7.0
Writing library : libebml v1.2.3 + libmatroska v1.3.0

Video
ID : 1
Format : AVC
Format/Info : Advanced Video Codec
Format profile : High@L4.1
Format settings, CABAC : Yes
Format settings, ReFrames : 5 frames
Codec ID : V_MPEG4/ISO/AVC
Duration : 2h 5mn
Bit rate : 8 496 Kbps
Width : 1 920 pixels
Height : 800 pixels
Display aspect ratio : 2.40:1
Frame rate : 23.976 fps
Color space : YUV
Chroma subsampling : 4:2:0
Bit depth : 8 bits
Scan type : Progressive
Bits/(Pixel*Frame) : 0.231
Stream size : 7.26 GiB (91%)
Title : Red Tails (2012)
Writing library : x264 core 124 r2197 69a0443
Encoding settings : cabac=1 / ref=5 / deblock=1:0:0 / analyse=0x3:0x133 / me=umh / subme=8 / psy=1 / psy_rd=1.00:0.00 / mixed_ref=1 / me_range=16 / chroma_me=1 / trellis=1 / 8x8dct=1 / cqm=0 / deadzone=21,11 / fast_pskip=1 / chroma_qp_offset=-2 / threads=24 / sliced_threads=0 / nr=0 / decimate=1 / interlaced=0 / bluray_compat=0 / constrained_intra=0 / bframes=3 / b_pyramid=2 / b_adapt=1 / b_bias=0 / direct=1 / weightb=1 / open_gop=0 / weightp=2 / keyint=250 / keyint_min=23 / scenecut=40 / intra_refresh=0 / rc=2pass / mbtree=0 / bitrate=8496 / ratetol=1.0 / qcomp=0.60 / qpmin=0 / qpmax=69 / qpstep=4 / cplxblur=20.0 / qblur=0.5 / ip_ratio=1.40 / pb_ratio=1.30 / aq=1:1.00
Language : English

Audio
ID : 2
Format : AC-3
Format/Info : Audio Coding 3
Mode extension : CM (complete main)
Codec ID : A_AC3
Duration : 2h 5mn
Bit rate mode : Constant
Bit rate : 640 Kbps
Channel(s) : 6 channels
Channel positions : Front: L C R, Side: L R, LFE
Sampling rate : 48.0 KHz
Bit depth : 16 bits
Compression mode : Lossy
Stream size : 572 MiB (7%)
Title : English AC3
Language : English

Text #1
ID : 3
Format : UTF-8
Codec ID : S_TEXT/UTF8
Codec ID/Info : UTF-8 Plain Text
Title : English SRT
Language : English

Text #2
ID : 4
Format : UTF-8
Codec ID : S_TEXT/UTF8
Codec ID/Info : UTF-8 Plain Text
Title : Polish SRT
Language : Polish

Text #3
ID : 5
Format : UTF-8
Codec ID : S_TEXT/UTF8
Codec ID/Info : UTF-8 Plain Text
Title : Dutch SRT
Language : Dutch

Text #4
ID : 6
Format : UTF-8
Codec ID : S_TEXT/UTF8
Codec ID/Info : UTF-8 Plain Text
Title : Czech SRT
Language : Czech

Text #5
ID : 7
Format : UTF-8
Codec ID : S_TEXT/UTF8
Codec ID/Info : UTF-8 Plain Text
Title : French SRT
Language : French

Text #6
ID : 8
Format : UTF-8
Codec ID : S_TEXT/UTF8
Codec ID/Info : UTF-8 Plain Text
Title : German SRT
Language : German

Text #7
ID : 9
Format : UTF-8
Codec ID : S_TEXT/UTF8
Codec ID/Info : UTF-8 Plain Text
Title : Norwegian SRT
Language : Norwegian

Text #8
ID : 10
Format : UTF-8
Codec ID : S_TEXT/UTF8
Codec ID/Info : UTF-8 Plain Text
Title : Swedish SRT
Language : Swedish

Zgłoś do moderacji pliki
Tracker


Red Tails (2012)[1080p.BRRip.x264.AC3][Multi Sub].mkv 7.98 GB
Red Tails (2012) Subs SRT 9.21 MB
Red Tails (2012) Subs SRT 9.07 MB
Red Tails (2012) Subs SRT 8.84 MB
Red Tails (2012) Subs SRT 8.76 MB
Red Tails (2012) Subs SRT 8.64 MB
Red Tails (2012) Subs SRT 8.31 MB
Red Tails (2012) Subs SRT 7.78 MB
Red Tails (2012) Subs SRT 7.18 MB
Nostalgie.jpg 186.34 KB
Red Tails (2012) Subs SRT 109.49 KB
Red Tails (2012) Subs SRT 108.37 KB
Red Tails (2012) Subs SRT 106.53 KB
Red Tails (2012) Subs SRT 104.64 KB
Red Tails (2012) Subs SRT 103.85 KB
Red Tails (2012) Subs SRT 100.11 KB
Red Tails (2012) Subs SRT 90.20 KB
Red Tails (2012) Subs SRT 89.31 KB
Red Tails (2012) Subs SRT 66.70 KB
Red Tails (2012) Subs SRT 66.66 KB
Red Tails (2012) Subs SRT 64.81 KB
Red Tails (2012) Subs SRT 63.79 KB
Red Tails (2012) Subs SRT 61.07 KB
Red Tails (2012) Subs SRT 59.40 KB
Red Tails (2012) Subs SRT 55.97 KB
Red Tails (2012) Subs SRT 52.15 KB
Red Tails (2012)[1080p.BRRip.x264.AC3][Multi Sub].MKV.mta 13.17 KB
Red Tails (2012)[1080p.BRRip.x264.AC3][Multi Sub] (1).MKV.mta 13.17 KB
open info.txt 5.57 KB

Komentarze

avatar
Dodał: zwiezakos
Data: 2013-06-23 15:05:16
"Afrykańsko-amerykańskich pilotów"?
Palanty z poprawnością polityczna zamiast mózgu piszący ten opis już nie wiedzą jak sie wykazać...
avatar
Dodał: grzegorz280
Data: 2013-06-23 15:15:45
Znowu się odzywa fanatyk historyczno-polityczno-rasistowski.
avatar
Dodał: zapalka
Data: 2013-06-23 15:21:56
zwiezakos@ a nie wk..... cie ta masa cyferek w poisie ?
pobieraj lub nie a tego typu komenty wsadz tam gdzie slonce nie dociera
avatar
Dodał: zwiezakos
Data: 2013-06-23 15:45:24
zapalka

Nie tobie oceniać, co i gdzie moge pisać, nie podoba sie?
Nie czytaj.

grzegorz280

A dziękuję, zawsze cos nowego, a u ciebie co?
Dalej wypłata w srebrnikach?
avatar
Dodał: zapalka
Data: 2013-06-23 17:07:52
jest takie przysłowie:
krytyk i eunuch z jednej są parafi każdy wie jak lecz sam nie potrafi
avatar
Dodał: zwiezakos
Data: 2013-06-23 17:15:42
Cóż... jesli ja jestem krytyk, to ty jesteś...
:))))))
avatar
Dodał: cichyBob76
Data: 2013-06-23 17:44:59
Żenująca konwersacja!?
avatar
Dodał: zeke0
Data: 2013-06-23 17:59:26
A coś o filmie?Fajny?Biali nie potrafią skakać. A czy czarni potrafią latać?
avatar
Dodał: zapalka
Data: 2013-06-23 18:29:33
ja polecam z uwagi na swietne sceny
film oparty na faktach
a z lektorem go raczej nie znajdziecie chyba ze [ivo]
avatar
Dodał: grzegorz280
Data: 2013-06-23 19:33:54
zwiezakos

U mnie wypłata jest w Koronach Szwedzkich.
avatar
Dodał: kibeusz
Data: 2013-06-23 20:36:15

co by nie było zwrot afrykansko-amerykanscy żołnierze do fortunnych nie należy:)
avatar
Dodał: zapalka
Data: 2013-06-23 21:19:18
widze ze swietnie sobie udostępniacie to nie jest torrent z innych stronek ja to wstawiłem i wyslalem do 5 w 100% a widze ze już jest 0 sedow oby tak dalej
avatar
Dodał: banszuc
Data: 2013-06-24 00:44:24
zapałka spoko zawsze znajdzie się niedoceniony narodowiec...:(
avatar
Dodał: maxsior54
Data: 2013-07-11 22:45:33
boże ale jesteście żałośni jak chcecie się spzeczać do idzcie na kafetrie tutaj maja być komentarze na temat filmu a nie wasze głupie sprzeczki :)
Max ()

Dodaj komentarz

<> tylko czysty tekst

Żaden z plików nie znajduje się na serwerze. Torrenty są własnością użytkowników. Administrator serwisu nie może ponieść konsekwencji za to co użytkownicy wstawiają, lub za to co czynią na stronie. Nie możesz używać tego serwisu do rozpowszechniania lub ściągania materiałów do których nie masz odpowiednich praw lub licencji. Użytkownicy odpowiedzialni są za przestrzeganie tych zasad.