Upload | Wsparcie | Staty | Staty 2 | FAQ | O nas | Forum | Pluginy | Banery | Szukaj | Moje konto
Ostatnio dodane
Filmy XviD / DivX
DVD-R
Filmy RMVB
Filmy x264
Filmy HD
Filmy 3D
Programy
Konsole
Gry
Muzyka
Teledyski
TV
Erotyka
Książki
Komiksy
Lin/Mac
Sport
Anime
dla Dzieci
GSM/PDA
Inne
info RSS

RSS

Programy

Azureus
BitComet
uTorrent
BitTornado

Linki

Zakochany Wilczek - Alpha and Omega 3D (2010) [BRRip.x264-HOU.AC3/Multi Audio] [Dubbing PL]
brak screena

Dodał: ale13
Data dodania:
2013-06-15 06:11:57
Rozmiar: 3.53 GB


Komentarze: 2

Pobierz torrent

Magnet Link
http://imagesup.org/images11/1371240049-txt.jpg

Film w wersji 3D - Half Over Under

gatunek: Animacja, Familijny, Komedia, Przygodowy
produkcja: Indie, USA
premiera: 16-09-2010 (świat)
reżyseria: Anthony Bell, Ben Gluck
scenariusz: Steve Moore, Chris Denk
muzyka: Chris Bacon
czas: 91:28:12

Two young wolves at opposite ends of their pack's social order are thrown together into a foreign
land and need each other to return home, but love complicates everything.

Co sprawia że podróż wydaje się niesamowita? Autostop i zatrzymane samochody, złe niedźwiedzie,
kłujące jeżozwierze i grające w golfa gęsi oraz kaczki. Wystarczy zapytać Kate i Humphrey, dwa wilki,
które próbują dostać się do domu, po złapaniu przez strażników leśnych i wywiezieniu na drugi koniec
kraju. Humphrey jest wilkiem Omega, którego dni są szybkie i dowcip zgryźliwy, pochodzi on z kochającej
rodziny wilków bawiących się z wiewiórkami. Kate jest wilkiem Alpha: lubi dyscyplinę i ma gładkie oko
Lary Croft – ognia dodają jej bardzo zwinne ruchy. Te dwie zupełnie inne osobowości połączy wspólny
cel, czyli powrót do domu.

Audio:

http://imagesup.org/images11/1371240194-audio.jpg

http://imagesup.org/images11/1371240081-ale132013-06-14-15h.jpg
http://imagesup.org/images11/1371240107-ale132013-06-14-15h.jpg
http://imagesup.org/images11/1371240135-ale132013-06-14-15h.jpg

http://imagesup.org/images11/1370144683-seeduj.gif

Obsada:

Justin Long ... Humphrey (voice)
Hayden Panettiere ... Kate (voice)
Dennis Hopper ... Tony (voice)
Danny Glover ... Winston (voice)

Dane techniczne:

Format : Matroska
Format version : Version 4 / Version 2
File size : 3.50 GiB
Duration : 1h 28mn
Overall bit rate : 5 688 Kbps
Movie name : Alpha And Omega (2010)_Rip.-alE13
Encoded date : UTC 2013-06-14 19:50:27
Writing application : mkvmerge v6.1.0
Writing library : libebml v1.3.0 + libmatroska v1.4.0

Video
ID : 1
Format : AVC
Format/Info : Advanced Video Codec
Format profile : High@L4.0
Format settings, CABAC : Yes
Format settings, ReFrames : 2 frames
Codec ID : V_MPEG4/ISO/AVC
Duration : 1h 28mn
Bit rate : 4 000 Kbps
Width : 1 920 pixels
Height : 1 080 pixels
Display aspect ratio : 16:9
Frame rate mode : Constant
Frame rate : 24.000 fps
Color space : YUV
Chroma subsampling : 4:2:0
Bit depth : 8 bits
Scan type : Progressive
Bits/(Pixel*Frame) : 0.080
Stream size : 2.37 GiB (68%)
Writing library : x264 core 112 r1834 a51816a

Audio #1
ID : 2
Format : AC-3
Format/Info : Audio Coding 3
Mode extension : CM (complete main)
Format settings, Endianness : Big
Codec ID : A_AC3
Duration : 1h 28mn
Bit rate mode : Constant
Bit rate : 384 Kbps
Channel(s) : 6 channels
Channel positions : Front: L C R, Side: L R, LFE
Sampling rate : 48.0 KHz
Bit depth : 16 bits
Compression mode : Lossy
Stream size : 242 MiB (7%)
Title : Alpha And Omega (2010)_Rip.alE13
Language : Polish

Audio #2
ID : 3
Format : AC-3
Format/Info : Audio Coding 3
Mode extension : CM (complete main)
Format settings, Endianness : Big
Codec ID : A_AC3
Duration : 1h 28mn
Bit rate mode : Constant
Bit rate : 448 Kbps
Channel(s) : 6 channels
Channel positions : Front: L C R, Side: L R, LFE
Sampling rate : 48.0 KHz
Bit depth : 16 bits
Compression mode : Lossy
Stream size : 283 MiB (8%)
Title : Alpha And Omega (2010)_Rip.alE13
Language : English

Audio #3
ID : 4
Format : AC-3
Format/Info : Audio Coding 3
Mode extension : CM (complete main)
Format settings, Endianness : Big
Codec ID : A_AC3
Duration : 1h 28mn
Bit rate mode : Constant
Bit rate : 128 Kbps
Channel(s) : 2 channels
Channel positions : Front: L R
Sampling rate : 48.0 KHz
Bit depth : 16 bits
Compression mode : Lossy
Stream size : 80.8 MiB (2%)
Title : Alpha And Omega (2010)_Rip.alE13
Language : French

Audio #4
ID : 5
Format : AC-3
Format/Info : Audio Coding 3
Mode extension : CM (complete main)
Format settings, Endianness : Big
Codec ID : A_AC3
Duration : 1h 28mn
Bit rate mode : Constant
Bit rate : 128 Kbps
Channel(s) : 2 channels
Channel positions : Front: L R
Sampling rate : 48.0 KHz
Bit depth : 16 bits
Compression mode : Lossy
Stream size : 80.8 MiB (2%)
Title : Alpha And Omega (2010)_Rip.alE13
Language : Greek

Audio #5
ID : 6
Format : AC-3
Format/Info : Audio Coding 3
Mode extension : CM (complete main)
Format settings, Endianness : Big
Codec ID : A_AC3
Duration : 1h 28mn
Bit rate mode : Constant
Bit rate : 128 Kbps
Channel(s) : 2 channels
Channel positions : Front: L R
Sampling rate : 48.0 KHz
Bit depth : 16 bits
Compression mode : Lossy
Stream size : 80.8 MiB (2%)
Title : Alpha And Omega (2010)_Rip.alE13
Language : Russian

Audio #6
ID : 7
Format : AC-3
Format/Info : Audio Coding 3
Mode extension : CM (complete main)
Format settings, Endianness : Big
Codec ID : A_AC3
Duration : 1h 28mn
Bit rate mode : Constant
Bit rate : 128 Kbps
Channel(s) : 2 channels
Channel positions : Front: L R
Sampling rate : 48.0 KHz
Bit depth : 16 bits
Compression mode : Lossy
Stream size : 80.8 MiB (2%)
Title : Alpha And Omega (2010)_Rip.alE13
Language : Danish

Audio #7
ID : 8
Format : AC-3
Format/Info : Audio Coding 3
Mode extension : CM (complete main)
Format settings, Endianness : Big
Codec ID : A_AC3
Duration : 1h 28mn
Bit rate mode : Constant
Bit rate : 128 Kbps
Channel(s) : 2 channels
Channel positions : Front: L R
Sampling rate : 48.0 KHz
Bit depth : 16 bits
Compression mode : Lossy
Stream size : 80.8 MiB (2%)
Title : Alpha And Omega (2010)_Rip.alE13
Language : Finnish

Audio #8
ID : 9
Format : AC-3
Format/Info : Audio Coding 3
Mode extension : CM (complete main)
Format settings, Endianness : Big
Codec ID : A_AC3
Duration : 1h 28mn
Bit rate mode : Constant
Bit rate : 128 Kbps
Channel(s) : 2 channels
Channel positions : Front: L R
Sampling rate : 48.0 KHz
Bit depth : 16 bits
Compression mode : Lossy
Stream size : 80.8 MiB (2%)
Title : Alpha And Omega (2010)_Rip.alE13
Language : Norwegian

Audio #9
ID : 10
Format : AC-3
Format/Info : Audio Coding 3
Mode extension : CM (complete main)
Format settings, Endianness : Big
Codec ID : A_AC3
Duration : 1h 28mn
Bit rate mode : Constant
Bit rate : 128 Kbps
Channel(s) : 2 channels
Channel positions : Front: L R
Sampling rate : 48.0 KHz
Bit depth : 16 bits
Compression mode : Lossy
Stream size : 80.8 MiB (2%)
Title : Alpha And Omega (2010)_Rip.alE13
Language : Swedish

Menu
00:00:00.000 : en:(01)00:00:00:000
00:05:40.381 : en:(02)00:05:40:381
00:10:41.349 : en:(03)00:10:41:349
00:16:08.092 : en:(04)00:16:08:092
00:21:47.681 : en:(05)00:21:47:681
00:26:17.701 : en:(06)00:26:17:701
00:31:28.803 : en:(07)00:31:28:803
00:37:11.437 : en:(08)00:37:11:437
00:42:44.895 : en:(09)00:42:44:895
00:46:58.732 : en:(10)00:46:58:732
00:52:06.581 : en:(11)00:52:06:581
00:57:02.794 : en:(12)00:57:02:794
01:02:19.485 : en:(13)01:02:19:485
01:07:53.986 : en:(14)01:07:53:986
01:13:43.168 : en:(15)01:13:43:168
01:19:26.261 : en:(16)01:19:26:261

Zgłoś do moderacji pliki
Tracker


Alpha And Omega (2010)-alE13.mkv 3.50 GB
SAMPLE.mkv 20.00 MB
1.jpg 163.44 KB
___alE13___2013-06-14-15h12m00s178.jpg 162.96 KB
___alE13___2013-06-14-15h11m42s103.jpg 160.26 KB
Txt.jpg 147.69 KB
___alE13___2013-06-14-15h13m35s238.jpg 133.00 KB
___alE13___2013-06-14-15h13m13s252.jpg 123.67 KB
___alE13___2013-06-14-15h13m19s63.jpg 120.17 KB
Audio.jpg 109.66 KB
___alE13___2013-06-14-15h11m50s178.jpg 94.63 KB

Komentarze

avatar
Dodał: MS30LLW
Data: 2014-04-21 11:05:15
czemu mam po angielsku??? w opisie jest dubbing pl
avatar
Dodał: MS30LLW
Data: 2014-04-21 11:15:09
sorki, już doczytałem hehe
Max ()

Dodaj komentarz

<> tylko czysty tekst

Żaden z plików nie znajduje się na serwerze. Torrenty są własnością użytkowników. Administrator serwisu nie może ponieść konsekwencji za to co użytkownicy wstawiają, lub za to co czynią na stronie. Nie możesz używać tego serwisu do rozpowszechniania lub ściągania materiałów do których nie masz odpowiednich praw lub licencji. Użytkownicy odpowiedzialni są za przestrzeganie tych zasad.