Upload | Wsparcie | Staty | Staty 2 | FAQ | O nas | Forum | Pluginy | Banery | Szukaj | Moje konto
Ostatnio dodane
Filmy XviD / DivX
DVD-R
Filmy RMVB
Filmy x264
Filmy HD
Filmy 3D
Programy
Konsole
Gry
Muzyka
Teledyski
TV
Erotyka
Książki
Komiksy
Lin/Mac
Sport
Anime
dla Dzieci
GSM/PDA
Inne
info RSS

RSS

Programy

Azureus
BitComet
uTorrent
BitTornado

Linki

Gwiezdne wojny Część III: Zemsta Sithów - Star Wars Episode 3 Revenge of the Sith (2005) [1080p.BRRip.x264.AC3] [Dual Audio] [Napisy i Lektor PL]
brak screena

Dodał: zapalka
Data dodania:
2013-05-27 12:35:52
Rozmiar: 5.00 GB


Komentarze: 33

Pobierz torrent

Magnet Link
produkcja: USA
gatunek: Przygodowy, Sci-Fi
data premiery: 2005-05-19 (Polska), 2005-05-15 (Świat)
reżyseria George Lucas
scenariusz George Lucas
zdjęcia David Tattersall
muzyka John Williams
od lat: 12
czas trwania: 140

Ostatnia część Gwiezdnej Sagi George'a Lucasa będzie opowiadać o przejściu Anakina Skywalkera na Ciemną Stronę Mocy. Anakin zaczyna się wahać po czyjej stronie będzie walczyć. Obawa przed utratą Padme zbliża go coraz bardziej na Ciemną Stronę. Również pod wpływem kanclerza Palpatine Anakin zaczyna się oddalać od JEDI. Doprowadza go to do pojedynku ze swoim mistrzem Obi Wanem. Straszliwie poparzony Anakin zostaje uratowany przez Imperatora i zmienia się w Dartha Vadera.

Obsada:

Ewan McGregor :Obi-wan Kenobi
Hayden Christensen :Anakin Skywalker
Natalie Portman :Padme Amidala
Ian McDiarmid :Kanclerz Palpatine
Samuel L. Jackson :Mace Windu
Christopher Lee :Darth Tyranus aka Count Dooku
Jimmy Smits :Senator Bail Organa
Frank Oz :Yoda (głos)
James Earl Jones :Darth Vader (głos)
Anthony Daniels :C-3PO
Jay Laga'aia :Captain Typho
Keisha Castle-Hughes :Królowa Naboo
Matthew Wood :Generał Grevious (głos)
Kenny Baker :R2-D2
Rebecca Jackson Mendoza :Żona Baila Organy

General:
Unique ID : 192405852317471217610989179923838387775 (0x90C004ED438138A1858FE1C26C3DC63F)
Complete name : Star Wars -Episode 3- Revenge of the Sith (2005)[1080p.BRRip.x264.AC3][Dual Audio][Lektor i Napisy PL].mkv
Format : Matroska
Format version : Version 2
File size : 5.00 GiB
Duration : 2h 20mn
Overall bit rate : 5 108 Kbps
Movie name : Star Wars - Revenge of the Sith
Encoded date : UTC 2013-04-22 19:04:51
Writing application : mkvmerge v5.7.0
Writing library : libebml v1.2.3 + libmatroska v1.3.0

Video
ID : 1
Format : AVC
Format/Info : Advanced Video Codec
Format profile : High@L4.1
Format settings, CABAC : Yes
Format settings, ReFrames : 5 frames
Codec ID : V_MPEG4/ISO/AVC
Duration : 2h 20mn
Bit rate : 4 021 Kbps
Width : 1 920 pixels
Height : 816 pixels
Display aspect ratio : 2.35:1
Frame rate : 23.976 fps
Color space : YUV
Chroma subsampling : 4:2:0
Bit depth : 8 bits
Scan type : Progressive
Bits/(Pixel*Frame) : 0.107
Stream size : 3.83 GiB (77%)
Writing library : x264 core 116 r2044 392e762
Encoding settings : cabac=1 / ref=5 / deblock=1:0:0 / analyse=0x3:0x113 / me=umh / subme=9 / psy=1 / psy_rd=1.00:0.00 / mixed_ref=1 / me_range=16 / chroma_me=1 / trellis=1 / 8x8dct=1 / cqm=0 / deadzone=21,11 / fast_pskip=1 / chroma_qp_offset=-2 / threads=12 / sliced_threads=0 / nr=0 / decimate=1 / interlaced=0 / bluray_compat=0 / constrained_intra=0 / bframes=5 / b_pyramid=2 / b_adapt=1 / b_bias=0 / direct=1 / weightb=1 / open_gop=0 / weightp=2 / keyint=250 / keyint_min=23 / scenecut=40 / intra_refresh=0 / rc_lookahead=40 / rc=2pass / mbtree=1 / bitrate=4021 / ratetol=1.0 / qcomp=0.60 / qpmin=0 / qpmax=69 / qpstep=4 / cplxblur=20.0 / qblur=0.5 / vbv_maxrate=20000 / vbv_bufsize=15000 / nal_hrd=none / ip_ratio=1.40 / aq=1:1.00
Language : English
Color primaries : BT.709-5, BT.1361, IEC 61966-2-4, SMPTE RP177
Transfer characteristics : BT.709-5, BT.1361
Matrix coefficients : BT.709-5, BT.1361, IEC 61966-2-4 709, SMPTE RP177

Audio #1
ID : 2
Format : AC-3
Format/Info : Audio Coding 3
Mode extension : CM (complete main)
Codec ID : A_AC3
Duration : 2h 20mn
Bit rate mode : Constant
Bit rate : 448 Kbps
Channel(s) : 6 channels
Channel positions : Front: L C R, Side: L R, LFE
Sampling rate : 48.0 KHz
Bit depth : 16 bits
Compression mode : Lossy
Stream size : 449 MiB (9%)
Title : English AC3
Language : English

Audio #2
ID : 3
Format : AC-3
Format/Info : Audio Coding 3
Mode extension : CM (complete main)
Codec ID : A_AC3
Duration : 2h 20mn
Bit rate mode : Constant
Bit rate : 640 Kbps
Channel(s) : 6 channels
Channel positions : Front: L C R, Side: L R, LFE
Sampling rate : 48.0 KHz
Bit depth : 16 bits
Compression mode : Lossy
Stream size : 641 MiB (13%)
Title : Polish Lector AC3
Language : Polish

Text
ID : 4
Format : UTF-8
Codec ID : S_TEXT/UTF8
Codec ID/Info : UTF-8 Plain Text
Title : Polish subs
Language : Polish

plik sample jest w pierwszej czesci

czesc druga tu :http://torrenty.org/torrent/787444

część pierwsza tu:http://torrenty.org/torrent/787376

Zgłoś do moderacji pliki
Tracker


Star Wars -Episode 3- Revenge of the Sith (2005)[1080p.BRRip.x264.AC3][Dual Audio][Lektor i Napisy PL].mkv 5.00 GB
Nostalgie.jpg 185.50 KB
3.jpg 57.49 KB
STAR.jpg 19.41 KB
open info.txt 4.55 KB

Komentarze

avatar
Dodał: Blachu82
Data: 2013-05-27 13:07:13
Zaczynam pobierać. Dwie poprzednie części już rozsyłam.
avatar
Dodał: zapalka
Data: 2013-05-27 13:52:17
no bardzo ladnie idzie mam nadzieje ze ci co terza maja 29 % jak już pobiorą to pomoga seedowac
avatar
Dodał: Blachu82
Data: 2013-05-27 13:54:50
Na mnie możesz liczyć. W razie czego wrzucaj kolejną część a tą ja wyseeduję dalej
avatar
Dodał: zapalka
Data: 2013-05-27 14:04:44
no może uda się tak zrobić
opieszalosc moderatorow tego serwisu tym razem wyszla na dobre bo mniej pobierających i torek się super rozchodzi
avatar
Dodał: Blachu82
Data: 2013-05-27 14:06:09
No właśnie. Czekam aż się pojawi i nadal nie ma. Bardzo dobrze, niech go potrzymają jeszcze z pół godziny.
avatar
Dodał: zapalka
Data: 2013-05-27 14:15:45
a dwie osoby za chwilke będą miały 50% i mam nadzieje ze pomoga potem
avatar
Dodał: kosa176
Data: 2013-05-27 14:28:17
jak coś pobiorę również poseeduję
avatar
Dodał: kosa176
Data: 2013-05-27 14:31:44
jedynki mam 85 % dwie następne dopiero zaczynam
avatar
Dodał: Blachu82
Data: 2013-05-27 14:40:42
Jeszcze 40 minut i mam 100% jak nic sienie zmieni.
avatar
Dodał: zapalka
Data: 2013-05-27 15:25:24
no już pierwsze setki zaliczone rozeszło się wzorowo teraz jeszcze chwile poseduje i może dodam 4 czesc
avatar
Dodał: kosa176
Data: 2013-05-27 15:46:20
tak tak wrzucaj resztę niech już coś leci
avatar
Dodał: Blachu82
Data: 2013-05-27 16:14:49
Możemy zrobić tak jak wcześniej zanim moderator udostępni torrent to podaj adres tutaj i zaczniemy juz ściagać
avatar
Dodał: kosa176
Data: 2013-05-27 16:17:42
dokładnie żeby już jakiś progres był jedynki mam 94 % jak coś to jak wyżej z seedem pomagam
avatar
Dodał: kosa176
Data: 2013-05-27 16:23:25
a jak sobie avatary ustawiliście ??
avatar
Dodał: zapalka
Data: 2013-05-27 17:14:30
kliknij na [moje konto] jest takie pole
avatar
Dodał: zapalka
Data: 2013-05-27 17:52:13
jutro kolejną część wstawie niech się rozejdzie to co już wstawiłem
avatar
Dodał: Blachu82
Data: 2013-05-27 18:11:56
Ok,czekamy, podaj jeszcze godzinę to zaczniemy pobierać wcześńiej
avatar
Dodał: zapalka
Data: 2013-05-27 19:01:45
jakos po 15
avatar
Dodał: kosa176
Data: 2013-05-27 19:03:22
dzięki za podpowiedź . czekam na kolejne części
avatar
Dodał: Rafaello901
Data: 2013-05-28 10:59:10
Dzięki Zapalka za dotychczasowe części ....już od dłuższego czasu myślałem o star wars ;-))))
avatar
Dodał: zapalka
Data: 2013-05-28 15:47:24
dodałem czwarta czesc jest tu :/torrent/787785
avatar
Dodał: DyG121
Data: 2013-05-28 19:29:53
seed! seed! bo idzie w granicach 10 kB masakra jakaś i to kazda z 3 części
avatar
Dodał: Chukri
Data: 2013-05-29 00:30:00
mam pytanie na jakim programie (PC) -mozna przełączać po między napisami a lektorem?
avatar
Dodał: krztop
Data: 2013-05-29 03:50:28
na każdym, kliknij prawym myszy na okienko z filmem w programie w którym odtwarzasz i znajdziesz tam opcje ścieżka audio, napisy itp.
avatar
Dodał: Wysek4666
Data: 2013-05-29 15:10:46
Zapalka mam pytanko. Dlaczego nie moge wl ani napisow ani lektora polskiego mozesz mi odp? Film wlaczam na Bestplayer. Pozdrawiam
avatar
Dodał: zapalka
Data: 2013-05-29 15:36:42
Chukri@ & Wysek4666@ - vlc mediaplayer
avatar
Dodał: Wysek4666
Data: 2013-05-29 20:46:09
dzieki wielkie pozdrawiam :)
avatar
Dodał: Wysek4666
Data: 2013-05-30 10:43:04
w 3 cz nie ma obrazu. wczesniejsze 2 ok ....
avatar
Dodał: Wysek4666
Data: 2013-05-30 10:44:13
Moj blad wszystko ok :)
avatar
Dodał: SmiejacaSieTwarz
Data: 2013-05-31 16:55:21
seedaa! 90% i stoi
avatar
Dodał: yamakashi
Data: 2013-06-01 14:32:02
a cinavia blokuje czy można na szajsungu obejrzeć?
avatar
Dodał: ollamaster
Data: 2013-06-02 19:34:27
witam.czy ktos moze mi pomoc.jak ogladam na kompie,to moge wlaczyc napisy i lektora.niestety chciala bym moc ogladac na tv bezposrednio z dysku.niestety w takim ukladnie moge tylko wlaczyc lektora ale nie ma mozliwosci wlaczenia napisow :-( zalezy mi na tym ,zeby ogladac angielska wersje dzwieku z napisdami.ratujcie jak to zrobic,bo sciagnac z netu samych napisow tez nie moge.z gory dzieki
avatar
Dodał: chemiplastik
Data: 2013-12-29 13:21:36
Witam! mam problem z plikiem wideo(mkv) przy sciaganiu III części. Komputer widzi plik ale jako O bajtów. A Przy Częsciach I,IV, VI jest wszystko okey z plikami.
Max ()

Dodaj komentarz

<> tylko czysty tekst

Żaden z plików nie znajduje się na serwerze. Torrenty są własnością użytkowników. Administrator serwisu nie może ponieść konsekwencji za to co użytkownicy wstawiają, lub za to co czynią na stronie. Nie możesz używać tego serwisu do rozpowszechniania lub ściągania materiałów do których nie masz odpowiednich praw lub licencji. Użytkownicy odpowiedzialni są za przestrzeganie tych zasad.