Upload | Wsparcie | Staty | Staty 2 | FAQ | O nas | Forum | Pluginy | Banery | Szukaj | Moje konto
Ostatnio dodane
Filmy XviD / DivX
DVD-R
Filmy RMVB
Filmy x264
Filmy HD
Filmy 3D
Programy
Konsole
Gry
Muzyka
Teledyski
TV
Erotyka
Książki
Komiksy
Lin/Mac
Sport
Anime
dla Dzieci
GSM/PDA
Inne
info RSS

RSS

Programy

Azureus
BitComet
uTorrent
BitTornado

Linki

Kroniki Riddicka - The Chronicles Of Riddick (2004) [BluRay.720p.DTS.x264] [Napisy PL]
brak screena

Dodał: elladajarek
Data dodania:
2013-03-06 17:48:24
Rozmiar: 6.58 GB


Komentarze: 7

Pobierz torrent

Magnet Link
Gatunek: Akcja, Sci-Fi
Produkcja: USA
Premiera: 24 września 2004 (Polska), 3 czerwca 2004 (świat)
Reżyseria: David Twohy
Scenariusz: David Twohy

Armia okrutnych Necromongerów najeżdża galaktykę. Jedyną istotą, która może im się przeciwstawić, jest awanturnik i ścigany więzień Riddick, mający dar widzenia w ciemności.

Obsada:

Vin Diesel ... Riddick
Colm Feore ... Lord Marshal
Thandie Newton ... Dame Vaako
Judi Dench ... Aereon
Karl Urban ... Vaako
Alexa Davalos ... Kyra
Linus Roache ... Purifier
Yorick van Wageningen...The Guv
Nick Chinlund ... Toombs
Keith David ... Imam
Mark Gibbon ... Irgun
Roger R. Cross ... Toal
Terry Chen ... Merc Pilot
Christina Cox ... Eve Logan
Nigel Vonas ... Merc

Dane techniczne:

Subtitles Muxed: Polish(SubRip), English, French, Spanish(VobSub)

Subtitles Ext: Romanian,Serbian,Spanish,Swedish,Arabic.
Subtitles Ext: Slovenian,Vietnamese,Brazilian,Bulgarian.
Subtitles Ext: English,Croatian,Danish,Dutch,Finnish.
Subtitles Ext: French,German,Greek,Italian,Norwegian.
Subtitles Ext: Portuguese,Macedonian,Hungarian,Polish.
Subtitles Ext: Russian,Chinese.(SubRip and VobSub)

Dane techniczne:

Format : Matroska
File size : 6.57 GiB
Duration : 2h 14mn
Overall bit rate : 7 014 Kbps
Movie name : The Chronicles Of Riddick 2004 Dir.Cut
Writing application : mkvmerge v6.1.0
Writing library : libebml v1.3.0 + libmatroska v1.4.0
Video #1
ID : 1
Format : AVC
Format/Info : Advanced Video Codec
Format profile : High@L4.1
Format settings, CABAC : Yes
Format settings, ReFrames : 10 frames
Codec ID : V_MPEG4/ISO/AVC
Duration : 2h 14mn
Bit rate : 5 497 Kbps
Width : 1 280 pixels
Height : 528 pixels
Display aspect ratio : 2.40:1
Frame rate : 23.976 fps
Color space : YUV
Chroma subsampling : 4:2:0
Bit depth : 8 bits
Scan type : Progressive
Bits/(Pixel*Frame) : 0.339
Stream size : 5.02 GiB (76%)
Title : The Chronicles Of Riddick 2004 Dir.Cut
Writing library : x264
Language : English
Audio #2
ID : 2
Format : DTS
Format/Info : Digital Theater Systems
Codec ID : A_DTS
Duration : 2h 14mn
Bit rate mode : Constant
Bit rate : 1 510 Kbps
Channel(s) : 6 channels
Channel positions : Front: L C R, Side: L R, LFE
Sampling rate : 48.0 KHz
Bit depth : 24 bits
Compression mode : Lossy
Stream size : 1.41 GiB (22%)
Text #3
ID : 3
Format : UTF-8
Codec ID : S_TEXT/UTF8
Codec ID/Info : UTF-8 Plain Text
Language : Polish
Text #4
ID : 4
Format : VobSub
Muxing mode : zlib
Codec ID : S_VOBSUB
Codec ID/Info : The same subtitle format used on DVDs
Language : English
Text #5
ID : 5
Format : VobSub
Muxing mode : zlib
Codec ID : S_VOBSUB
Codec ID/Info : The same subtitle format used on DVDs
Language : French
Text #6
ID : 6
Format : VobSub
Muxing mode : zlib
Codec ID : S_VOBSUB
Codec ID/Info : The same subtitle format used on DVDs
Language : Spanish

Zgłoś do moderacji pliki
Tracker


The Chronicles of Riddick 2004 Dir.Cut BluRay 720p DTS.mkv 6.57 GB
SubRip (srt) 0.21 KB
SubRip (srt) 82.25 KB
SubRip (srt) 63.85 KB
SubRip (srt) 79.20 KB
SubRip (srt) 61.79 KB
SubRip (srt) 64.18 KB
SubRip (srt) 65.49 KB
SubRip (srt) 70.78 KB
SubRip (srt) 64.13 KB
SubRip (srt) 62.65 KB
SubRip (srt) 63.69 KB
SubRip (srt) 68.79 KB
SubRip (srt) 85.82 KB
SubRip (srt) 63.92 KB
SubRip (srt) 65.43 KB
SubRip (srt) 81.65 KB
SubRip (srt) 62.60 KB
SubRip (srt) 66.93 KB
SubRip (srt) 65.92 KB
SubRip (srt) 66.72 KB
SubRip (srt) 84.20 KB
SubRip (srt) 62.90 KB
SubRip (srt) 58.88 KB
SubRip (srt) 67.13 KB
SubRip (srt) 63.03 KB
SubRip (srt) 71.61 KB
VobSub (Sub.idx) The same subtitle format used on DVDs - Extract from BD 41.73 KB
VobSub (Sub.idx) The same subtitle format used on DVDs - Extract from BD 2.73 MB
VobSub (Sub.idx) The same subtitle format used on DVDs - Extract from BD 40.94 KB
VobSub (Sub.idx) The same subtitle format used on DVDs - Extract from BD 3.64 MB

Komentarze

avatar
Dodał: stuk_niety
Data: 2013-03-07 18:42:49
to wersja uncut(ridikowi śni się furionka) czy ta co zawsze?
avatar
Dodał: mikibig
Data: 2013-03-08 10:32:05
@stuk_niety - wystarczy popatrzeć na czas trwania filmu;

-The Chronicles of Riddick [Theatrical Cut] - Duration: 1h 59mn

-The chronicles of Riddick [Unrated Director's Cut] - Duration: 2h 14mn
avatar
Dodał: killerbloob
Data: 2013-03-08 11:28:29
OROSZĘ Z LEKTOREM
avatar
Dodał: killerbloob
Data: 2013-03-08 11:28:42
OROSZĘ Z LEKTOREM
avatar
Dodał: gafar202
Data: 2013-03-08 15:42:29
Ja też poproszę z lektorem
avatar
Dodał: Likom86
Data: 2013-06-17 21:19:33
Dołączam się do tych próśb.
avatar
Dodał: onez76
Data: 2014-01-03 12:13:34
a ja wole DTS
Max ()

Dodaj komentarz

<> tylko czysty tekst

Żaden z plików nie znajduje się na serwerze. Torrenty są własnością użytkowników. Administrator serwisu nie może ponieść konsekwencji za to co użytkownicy wstawiają, lub za to co czynią na stronie. Nie możesz używać tego serwisu do rozpowszechniania lub ściągania materiałów do których nie masz odpowiednich praw lub licencji. Użytkownicy odpowiedzialni są za przestrzeganie tych zasad.