Upload | Wsparcie | Staty | Staty 2 | FAQ | O nas | Forum | Pluginy | Banery | Szukaj | Moje konto
Ostatnio dodane
Filmy XviD / DivX
DVD-R
Filmy RMVB
Filmy x264
Filmy HD
Filmy 3D
Programy
Konsole
Gry
Muzyka
Teledyski
TV
Erotyka
Książki
Komiksy
Lin/Mac
Sport
Anime
dla Dzieci
GSM/PDA
Inne
info RSS

RSS

Programy

Azureus
BitComet
uTorrent
BitTornado

Linki

Dharma & Greg S04E13-24 [TVRip.XviD] [Lektor PL]
brak screena

Dodał: Klatu_88
Data dodania:
2013-01-28 15:58:06
Rozmiar: 2.14 GB


Komentarze: 3

Pobierz torrent

Magnet Link
Tytuł PL: ..:: Dharma i Greg ::..
Tytuł....: ..:: Dharma & Greg ::..

Produkcja: USA
Gatunek: Komedia
Data premiery: 1997-2002
Reżyseria: Amanda Bearse, Robert Berlinger
Zdjęcia: Steven V. Silver
Muzyka: Dennis C. Brown
Czas trwania: 22 min.
http://www.filmweb.pl/serial/Dharma+i+Greg-1997-92162

Greg to spokojny, starannie wykształcony młody mężczyzna z dobrej rodziny. Dharma to kolorowa, wesoła hippiska. Na pierwszy rzut oka nie pasują do siebie. Jednak kiedy się spotykają zakochują się w sobie i... od razu biorą ślub. Dzięki zwariowanym pomysłom Dharmy życie sztywnego i nudnego Grega nabierze kolorów.

O B S A D A:

Jenna Elfman ... Dharma Freedom Finklestein Montgomery
Thomas Gibson ... Gregory Clifford 'Greg' Montgomery
Mimi Kennedy ... Abigail Kathleen 'Abby' O'Neil
Susan Sullivan ... Katherine 'Kitty' Montgomery
Mitch Ryan ... Edward Montgomery
Joel Murray ... Peter James 'Pete' Cavanaugh
Susan Chuang ... Susan
Yeardley Smith ... Marlene

Dharma & Greg TVRip.XviD [Lektor PL].avi

Format : AVI
Format/Info : Audio Video Interleave
File size : 183 MiB
Duration : 20mn 16s
Overall bit rate : 1 262 Kbps
Writing application : FairUse Wizard - http://fairusewizard.com
Writing library : The best and REALLY easy backup tool

Video
ID : 0
Format : MPEG-4 Visual
Format profile : Advanced Simple@L5
Format settings, BVOP : 1
Format settings, QPel : No
Format settings, GMC : No warppoints
Format settings, Matrix : Default (MPEG)
Muxing mode : Packed bitstream
Codec ID : XVID
Codec ID/Hint : XviD
Duration : 20mn 16s
Bit rate : 1 124 Kbps
Width : 592 pixels
Height : 384 pixels
Display aspect ratio : 3:2
Frame rate : 25.000 fps
Color space : YUV
Chroma subsampling : 4:2:0
Bit depth : 8 bits
Scan type : Progressive
Compression mode : Lossy
Bits/(Pixel*Frame) : 0.198
Stream size : 163 MiB (89%)
Writing library : XviD 1.2.1 (UTC 2008-12-04)

Audio
ID : 1
Format : MPEG Audio
Format version : Version 1
Format profile : Layer 3
Mode : Joint stereo
Mode extension : MS Stereo
Codec ID : 55
Codec ID/Hint : MP3
Duration : 20mn 16s
Bit rate mode : Constant
Bit rate : 128 Kbps
Channel(s) : 2 channels
Sampling rate : 48.0 KHz
Compression mode : Lossy
Stream size : 18.6 MiB (10%)
Alignment : Aligned on interleaves
Interleave, duration : 40 ms (1.00 video frame)
Interleave, preload duration : 504 ms
Writing library : LAME3.97
Encoding settings : -m j -V 4 -q 2 -lowpass 17 -b 128

Zgłoś do moderacji pliki
Tracker


Dharma & Greg S04E13.TVRip.XviD-RoR.Educating Dharma (1) [Lektor PL].avi 182.99 MB
Dharma & Greg S04E14.TVRip.XviD-RoR.Educating Dharma (2) [Lektor PL].avi 182.63 MB
Dharma & Greg S04E15.TVRip.XviD-RoR.Dharma Does Dallas [Lektor PL].avi 182.54 MB
Dharma & Greg S04E16.TVRip.XviD-RoR.Judy & Greg [Lektor PL].avi 183.82 MB
Dharma & Greg S04E17.TVRip.XviD-RoR.Do the Hustle [Lektor PL].avi 183.43 MB
Dharma & Greg S04E18.TVRip.XviD-RoR.For Pete's Sake [Lektor PL].avi 182.88 MB
Dharma & Greg S04E19.TVRip.XviD-RoR.Kitty Dearest [Lektor PL].avi 182.95 MB
Dharma & Greg S04E20.TVRip.XviD-RoR.The Story Of K [Lektor PL].avi 182.89 MB
Dharma & Greg S04E21.TVRip.XviD-RoR.Pride And Prejudice [Lektor PL].avi 183.21 MB
Dharma & Greg S04E22.TVRip.XviD-RoR.How This Happened [Lektor PL].avi 182.41 MB
Dharma & Greg S04E23.TVRip.XviD-RoR.The End of Innocence (1) [Lektor PL].avi 182.64 MB
Dharma & Greg S04E24.TVRip.XviD-RoR.The End of Innocence (2) [Lektor PL].avi 183.18 MB

Komentarze

avatar
Dodał: Klatu_88
Data: 2013-01-28 19:19:48
Nie będzie wstawek pełnych sezonów z powodów:
1 Aby wyssedować 4GB trzeba wysłać 2-2,5 czyli 8-10GB
Przy 2GB to 1,8-2, czyli im więcej, tym gorszy przelicznik
2 Są inne seriale i te osoby też czekają na kolejne odcinki.
Nie sposób wszystkich zadowolić.

W tej chwili największym problemem jest akceptacja przez Admina, a raczej jej dowolność. Przy braku konkretnych godzin wstawiania stwarza to poważny problem. Pliki które wstawiam trzeba wyssedować a przecież życie się na tym nie kończy.
avatar
Dodał: Klatu_88
Data: 2013-01-29 02:39:08
To dobry przykład. Wstawiłem o 16 a weszło o 23.
O tej godzinie już bym tego nie wstawił.
avatar
Dodał: andrzej559
Data: 2013-01-29 16:12:20
dlatego ja wrzucam swoje torrenty na 4 stronki na raz zawsze ktos dzies zakceptuje!
Max ()

Dodaj komentarz

<> tylko czysty tekst

Żaden z plików nie znajduje się na serwerze. Torrenty są własnością użytkowników. Administrator serwisu nie może ponieść konsekwencji za to co użytkownicy wstawiają, lub za to co czynią na stronie. Nie możesz używać tego serwisu do rozpowszechniania lub ściągania materiałów do których nie masz odpowiednich praw lub licencji. Użytkownicy odpowiedzialni są za przestrzeganie tych zasad.